Зорепад - Zorepad Lviv (1999) [] | Pop-Folk

Нові коментарі

Нова тема   Відповісти
Автор Повідомлення
mukhomor 
Свій


З нами з: 07.10.09
Востаннє: 12.10.19
Повідомлень: 116

2018-10-21 06:31  
Зорепад - Zorepad Lviv (1999) [] | Pop-Folk

Зорепад - Zorepad Lviv (1999) [] | Pop-Folk


Стиль: Pop Folk
Країна, місто: Україна
Видавець: Невідомий
Виконавці:
Гурт «Зорепад»
Склад виконавців:
Андрій Кучерепа (гітара бас, скрипка)
Володимир Дуць (гітара соло)
Юрій Бей (ударні інструменти)
Володимир Питель (лідер вокал)
Богдан Юр (клавішні інструменти)
Пісні:
    01. Від Бога наша пісня
    02. Синє небо
    03. Козацька мадонна
    04. Забудь печаль (Весільна заметіль)
    05. Білий лебідь
    06. Усміхнись
    07. Доля
    08. Мавка
    09. Мій ангел
    10. Била мене мати
    11. Світить місяць (весільна)
    12. Два дубки
    13. Ліщинонька
    14. Червона ружа
    15. Колись казала ти мені
    16. Ми зустрілися з тобою у Яремчі
    17. Через річеньку
    18. За рікою, за Дунаєм
    19. Забава аж до рання

Тривалість: 01:11:34
Мова: українська
Аудіо-кодек:
Бітрейт: ~860 кб/с
Джерело: Власний компакт-диск
Додаткова інформація:
Запис 1999 року, Австралія. Диск вироблено компанією PMI (Pacific Mirror Image), Австралія.


Срібний реліз (на рейтинг впливає 50% завантаженого)
 Трекер:    Зареєстрований   

Завантажити / скачати українську музику



відео для новачків



 Зареєстрований:   2018-10-21 06:31
 Розмір:   451 MB 
 Оцінка музики:   10/10 (Голосів: 4)
   
Gienek_Lwow 
VIP


З нами з: 28.09.10
Востаннє: 13.10.19
Повідомлень: 622

2018-10-21 12:05  
Dynamic Range
foobar2000 1.2.6 / Измерение динамического диапазона 1.1.1
дата измерения: 2018-10-21 12:00:56

--------------------------------------------------------------------------------
Проанализировано: Зорепад / Zorepad Lviv
--------------------------------------------------------------------------------

DR Пик RMSДлина Трек
--------------------------------------------------------------------------------
DR16 0.00 дБ -18.00 дБ 4:47 ?-Від Бога наша пісня
DR17 0.00 дБ -18.25 дБ 4:50 ?-Синє небо
DR13 0.00 дБ -16.25 дБ 3:43 ?-Козацька мадонна
DR13 0.00 дБ -15.27 дБ 3:21 ?-Забудь печаль (Весільна заметіль)
DR17 0.00 дБ -20.17 дБ 3:37 ?-Білий лебідь
DR14 0.00 дБ -15.56 дБ 2:56 ?-Усміхнись
DR15 0.00 дБ -16.55 дБ 3:16 ?-Доля
DR16 0.00 дБ -17.67 дБ 3:33 ?-Мавка
DR16 0.00 дБ -19.00 дБ 4:47 ?-Мій ангел
DR15 -0.32 дБ -17.29 дБ 3:40 ?-Била мене мати
DR14 0.00 дБ -15.59 дБ 2:29 ?-Світить місяць (весільна)
DR14 0.00 дБ -15.17 дБ 4:21 ?-Два дубки
DR13 0.00 дБ -15.03 дБ 3:38 ?-Ліщинонька
DR15 0.00 дБ -15.87 дБ 3:37 ?-Червона ружа
DR16 0.00 дБ -17.75 дБ 4:44 ?-Колись казала ти мені
DR13 0.00 дБ -14.98 дБ 3:51 ?-Ми зустрілися з тобою у Яремчі
DR14 0.00 дБ -15.68 дБ 2:53 ?-Через річеньку
DR13 0.00 дБ -14.60 дБ 3:55 ?-За рікою, за Дунаєм
DR14 0.00 дБ -16.53 дБ 3:36 ?-Забава аж до рання
--------------------------------------------------------------------------------

Количество треков: 19
Официальное значение DR: DR15

Частота дискретизации: 44100 Гц
Каналов: 2
Бит на сэмпл: 16
Битрейт: 898 kbps
Кодек:
================================================================================
mukhomor, дякую, гарно диск записано!

Ваш часовий пояс: GMT + 2 Години

Нова тема   Відповісти