Улісс. Жанна д'Арк і Лицар-Алхімік / Ulysses. Jehanne Darc to Renkin no Kishi (Серія 12 з 12) (2018) 720p Ukr/Jap | Sub Ukr

Нові коментарі

Нова тема   Відповісти
Останній раз роздавалося Dzuski.com (2019-11-15)
Автор Повідомлення
Konstantin_Exorcist 
Забанено
Забанено


З нами з: 18.11.14
Востаннє: 15.08.19
Повідомлень: 152

2018-10-20 23:34  
Улісс. Жанна д'Арк і Лицар-Алхімік / Ulysses. Jehanne Darc to Renkin no Kishi (Серія 12 з 12) (2018) 720p Ukr/Jap | Sub Ukr

Улісс. Жанна д'Арк і Лицар-Алхімік / Ulysses. Jehanne Darc to Renkin no Kishi (Серія 12 з 12) (2018) 720p Ukr/Jap | Sub Ukr
Альтернативний постер
Жанр: Історія, Середньовіччя, Фентезі, Бойовик
Країна: Японія



2.67 ((36) голосів)

Кінокомпанія: AXsiZ
Режисер: Ітакаґі Шін
Ролі озвучують: Тоджо Хісако, Ішіґамі Шідзука, Осака Ріота, Оно Юко, Намакура Манамі, Оніші Саорі, Такада Юкі, Ґенда Теси, Хірата Хіроакі, Томіта Мію

Сюжет:
XV століття, минуло майже 80 років від початку Столітньої війни між Францією та Англією за право на французький престол. Монморансі, син вельможі, намагаючись відшукати секрет Філософського каменя поринає у вивчення магії та алхімії в школі королівських лицарів.
Все йде непогано, та Англійці знову повертаються. Захопивши плацдарм і розгромивши французьку армію під Азенкуром, король Генріх V розпочинає новий етап бойових дій, сподіваючись з допомогою темної магії переломити хід війни і остаточно захопити Францію. Школу лицарів розпускають, а Монморансі, прагнучи з допомогою Філософського каменю зупинити війну і врятувати друзів, вперто продовжує свої дослідження.
Втративши все та опинившись у розшуку, заледве ставши алхіміком, він натрапляє на таємничу селянку на ім'я Жанна.


Тривалість: 1 серія: 24:00 (цілком серій: 12)
Перелік серій
01. Алхімія і феї
02. Дівчина на ймення Жанна
03. Палацові інтриги
04. Для кого ця клятва?
05. Доказ чистоти
06. Прах до праху
07. Дощ і спогади в Бретані
08. Повернення святої діви
09. Танок Білого і Чорного
10. Звір Апокаліпсису
11. Утопія, а потім…
12. Прекрасний новий світ
Якість: 720p
Відео:
кодек:
розмір кадру: 1280 х 720
бітрейт: 2206 кб/с

Аудіо # 1:
мова: українська
переклад: багатоголосий закадровий
кодек: VORBIS 2.0
бітрейт: 256 кб/с

Аудіо # 2:
мова: японська
переклад: оригінал
кодек: 2.0
бітрейт: 128 кб/с

Джерело озвучення:


Субтитри:
мова: українська (Написи)
тип: програмні (м'які)
формат: *.

Субтитри:
мова: українська (Повні)
тип: програмні (м'які)
формат: *.

Переклад і субтитри: Костянтин Hitler
Консультація з французької мови: Stepalex
Текст читали: Stayler, Амнезія, Artymko
Info
General
Unique ID : 238811205530874024081151603235051547767 (0xB3A95D7C5A235DA92749A33EDBB02C77)
Complete name : E:\ФанДаб\1Українізація\1Жанна д'Арк і Лицар-Алхімік\0\1\Ulysses - Jeanne d'Arc to Renkin no Kishi - 01 [720p] - Епізод 01. Алхімія і феї.
Format :
Format version : Version 4 / Version 2
File size : 430 MiB
Duration : 23 min 44 s
Overall bit rate mode : Variable
Overall bit rate : 2 529 kb/s
Encoded date : UTC 2018-10-20 19:12:16
Writing application : v25.0.0 ('Prog Noir') 64-bit
Writing library : libebml v1.3.6 + v1.4.9
Attachments : Calibri.ttf

Video
ID : 1
Format : AVC
Format/Info : Advanced Video Codec
Format profile : [email protected]
Format settings : CABAC / 6 Ref Frames
Format settings, CABAC : Yes
Format settings, ReFrames : 6 frames
Codec ID : V_MPEG4/ISO/AVC
Duration : 23 min 39 s
Bit rate : 2 206 kb/s
Width : 1 280 pixels
Height : 720 pixels
Display aspect ratio : 16:9
Frame rate mode : Constant
Frame rate : 23.976 (24000/1001) FPS
Color space : YUV
Chroma subsampling : 4:2:0
Bit depth : 8 bits
Scan type : Progressive
Bits/(Pixel*Frame) : 0.100
Stream size : 373 MiB (87%)
Writing library : core 142
Encoding settings : cabac=1 / ref=6 / deblock=1:1:1 / analyse=0x3:0x113 / me=umh / subme=8 / psy=1 / psy_rd=0.40:0.00 / mixed_ref=1 / me_range=16 / chroma_me=1 / trellis=1 / 8x8dct=1 / cqm=0 / deadzone=21,11 / fast_pskip=1 / chroma_qp_offset=-2 / threads=10 / lookahead_threads=1 / sliced_threads=0 / nr=0 / decimate=1 / interlaced=0 / bluray_compat=0 / constrained_intra=0 / bframes=3 / b_pyramid=2 / b_adapt=2 / b_bias=0 / direct=3 / weightb=1 / open_gop=0 / weightp=2 / keyint=48 / keyint_min=25 / scenecut=0 / intra_refresh=0 / rc_lookahead=48 / rc=crf / mbtree=1 / crf=15.0 / qcomp=0.60 / qpmin=0 / qpmax=69 / qpstep=4 / vbv_maxrate=4000 / vbv_bufsize=6000 / crf_max=0.0 / nal_hrd=none / filler=0 / ip_ratio=1.40 / aq=1:0.60
Default : Yes
Forced : No

Audio #1
ID : 2
Format : Vorbis
Format settings, Floor : 1
Codec ID : A_VORBIS
Duration : 23 min 41 s
Bit rate mode : Variable
Bit rate : 256 kb/s
Channel(s) : 2 channels
Sampling rate : 48.0 kHz
Frame rate : 82.975 FPS (578 SPF)
Compression mode : Lossy
Delay relative to video : -83 ms
Stream size : 33.4 MiB (8%)
Title : Українська (Stayler, Амнезія, Artymko)
Writing application : REAPER
Writing library : libVorbis (Everywhere) (20100325 (Everywhere))
Language : Ukrainian
Default : Yes
Forced : Yes

Audio #2
ID : 3
Format : LC
Format/Info : Advanced Audio Codec Low Complexity
Codec ID : A_AAC-2
Duration : 23 min 40 s
Bit rate : 128 kb/s
Channel(s) : 2 channels
Channel layout : L R
Sampling rate : 44.1 kHz
Frame rate : 43.066 FPS (1024 SPF)
Compression mode : Lossy
Delay relative to video : -83 ms
Stream size : 21.7 MiB (5%)
Title : Японська
Language : Japanese
Default : No
Forced : No

Text #1
ID : 4
Format :
Codec ID : S_TEXT/
Codec ID/Info : Advanced Sub Station Alpha
Duration : 23 min 38 s
Bit rate : 10 b/s
Count of elements : 13
Compression mode : Lossless
Stream size : 1.80 KiB (0%)
Title : Написи (Костянтин Hitler)
Language : Ukrainian
Default : Yes
Forced : Yes

Text #2
ID : 5
Format :
Codec ID : S_TEXT/
Codec ID/Info : Advanced Sub Station Alpha
Duration : 23 min 38 s
Bit rate : 182 b/s
Count of elements : 334
Compression mode : Lossless
Stream size : 31.5 KiB (0%)
Title : Повні (Костянтин Hitler).
Language : Ukrainian
Default : No
Forced : No
Скріншоти



Джерело:
Постер: Otaku-First
Особиста оцінка: 10 - без зайвих вагань рекомендую всім!

Торрент оновлено. Додано 12-ту серію!
Реліз завершено!


Авторський реліз (завантажувати можна без реєстрації)
 Трекер:    Зареєстрований   

Завантажити / скачати аніме українською



відео для новачків



 Зареєстрований:   2019-02-06 19:38
 Розмір:   4.98 GB 
 Оцінка аніме:   8.9/10 (Голосів: 12)
   
Konstantin_Exorcist 
Забанено
Забанено


З нами з: 18.11.14
Востаннє: 15.08.19
Повідомлень: 152

2018-11-05 23:19  
Додано 4-ту серію!

Konstantin_Exorcist 
Забанено
Забанено


З нами з: 18.11.14
Востаннє: 15.08.19
Повідомлень: 152

2018-11-19 22:09  
Додано 5-ту серію!

Konstantin_Exorcist 
Забанено
Забанено


З нами з: 18.11.14
Востаннє: 15.08.19
Повідомлень: 152

2018-11-21 23:10  
Додано 6-ту серію!

Konstantin_Exorcist 
Забанено
Забанено


З нами з: 18.11.14
Востаннє: 15.08.19
Повідомлень: 152

2018-12-09 18:41  
Додано 7-му серію!

Konstantin_Exorcist 
Забанено
Забанено


З нами з: 18.11.14
Востаннє: 15.08.19
Повідомлень: 152

2018-12-13 00:23  
Додано 8-му серію!

Konstantin_Exorcist 
Забанено
Забанено


З нами з: 18.11.14
Востаннє: 15.08.19
Повідомлень: 152

2018-12-27 23:26  
Додано 9-ту серію!

EvGaS 
Відео Гуртом - субтитрування
Відео Гуртом - субтитрування


З нами з: 27.02.12
Востаннє: 31.07.19
Повідомлень: 5674

2019-01-03 07:52  
Не дуже якісне аніме: дуже сильно, як би сказати — конвеєризоване.
Головний позитив у великій спеціалізації стилю — там, тло Західної Європи, одяг, тощо. Цим чимось нагадало Принцес Принципал у гарному і поганому.

Якщо хочете помилуватись Європою — то вже краще Нуар передивіться.

Улісс загалом і можна подивитись, якщо вам не хочеться сильно напружуватись і ви не очікуєте від нього якоїсь глибокої і серйозної історії: тут править поверхневість — усілякий фансервіс, гуморочок, яскраве видовище та вау-штуки. Тобто, щось для підлітків. Як немає чого кращого подивитись — переглянули поки свіже, і забули вже наступної поробки.

Додано через 19 хвилин 2 секунди:

Шоу — відстій, але така вже доля в того що йде. Група підвищеного ризику, чи гарним онґоїнг буде, чи поганим. З вибором цього на мою думку не пощастило.

Додано через 6 хвилин 27 секунд:

Трохи промахнулися повз: таке ж нове шоу, у такий самий час вийшло, але вдаліше, і його свого часу ніхто не взяв, як було застовбичення того що йтиме. Мабуть на Жанні просто допоміг клікбейт: знайома гучна назва і прикольні постери.

Iroduku: The World in Colors
https://toloka.to/t83736#1054502
http://anidb.net/a13925

Додано через 12 хвилин 4 секунди:

Гм, ну… схоже це не чергова моя власна прихіть: оцінки відповідні. «Пробите дно» 1.69/4.28 проти «Щось доволі непогане» 6.43/7.12. Ще зрівноважений рейтинг у 4 буває, але 1.7 у нормальному розділі мабуть що ще не бачив. І це ще з плюсами за популярність, бо новинки завжди мають на 1-2 бали вище. Виходить, що воно узагалі нікому не сподобалося з тих, хто голосував. Ну може одному на 15-20 душ. Дивно все одно, що оцінка настільки занижена — хоча воно мені й видалося відстоєм, але ж не настільки лютим.

Konstantin_Exorcist 
Забанено
Забанено


З нами з: 18.11.14
Востаннє: 15.08.19
Повідомлень: 152

2019-01-23 23:11  
Торрент оновлено. Додано 10-ту серію!

Konstantin_Exorcist 
Забанено
Забанено


З нами з: 18.11.14
Востаннє: 15.08.19
Повідомлень: 152

2019-02-03 18:42  
Торрент оновлено. Додано 11-ту серію!

Konstantin_Exorcist 
Забанено
Забанено


З нами з: 18.11.14
Востаннє: 15.08.19
Повідомлень: 152

2019-02-06 19:38  
Торрент оновлено. Додано 12-ту серію!
Реліз завершено!

Linatan 
Свій


З нами з: 01.11.15
Востаннє: 15.11.19
Повідомлень: 61

2019-03-13 17:49  
Погане аніме. Прям зовсім погане.
Konstantin_Exorcist 
Забанено
Забанено


З нами з: 18.11.14
Востаннє: 15.08.19
Повідомлень: 152

2019-03-13 21:18  
Linatan
Не "Погане", а своєрідне. Мені зайшло.

Ваш часовий пояс: GMT + 2 Години

Нова тема   Відповісти