Окультна Академія (Серія 1-2 з 13+4) / Seikimatsu Occult Gakuin (Episodes 1-2 of 13+4) (2010) 720p Ukr/Jap | Sub Ukr

Нові коментарі

Нова тема   Відповісти
Останній раз роздавалося WXevaovm (2018-11-16)
Автор Повідомлення
Konstantin_Exorcist 
Частий відвідувач


З нами з: 18.11.14
Востаннє: 16.11.18
Повідомлень: 45

2018-10-19 23:21  
Окультна Академія (Серія 1-2 з 13+4) / Seikimatsu Occult Gakuin (Episodes 1-2 of 13+4) (2010) 720p Ukr/Jap | Sub Ukr

Окультна Академія (Серія 1-2 з 13+4) / Seikimatsu Occult Gakuin (Episodes 1-2 of 13+4) (2010) 720p Ukr/Jap | Sub Ukr


Жанр: Детектив, Комедія, Містика, Фантастика, Школа
Країна: Японія



5.49 ((2719) голосів)

Кінокомпанія: A-1 Pictures Inc.
Режисер: Іто Томохіко
Ролі озвучують: Хікаса Йоко, Мідзушіма Такахіро, Коясу Такехіко, Кобаяші Ю, Ханадзава Кана, Такахаші Хірокі, Чіхара Мінорі, Мінасе Інорі, Такаґакі Аяхі, Шімака Ю
Сюжет:
Окультизм штука спірна, хтось вірить, хтось ні, але важко не повірити в те, що намагається тебе вбити. Донька директора Академії Вальдштайна – Кумашіро Мая завжди заперечувала, що окультизм існує і ненавиділа його до глибини душі, адже саме він був причиною її нещасливого дитинства. Але коли голий спецагент заявив їй, що треба рятувати світ, інакше Пророцтво Нострадамуса його знищить, невіра в окультизм різко вивітрилась, адже Мая – дівчинка бойова.


Тривалість: 1 серія: 24:00 (цілком серій: 13+4 спешли)
Перелік серій
Епізод 01 — Пророцтво Маї
Епізод 02 — Пришестя Бунмея
Епізод 03 — Прорив Мікази
Якість:
Відео:
кодек:
розмір кадру: 1280 х 720
бітрейт: 3542 кб/с

Аудіо # 1:
мова: українська
переклад: двоголосий закадровий
кодек: 2.0
бітрейт: 192 кб/с

Аудіо # 2:
мова: японська
переклад: оригінал
кодек: VORBIS
бітрейт: 256 кб/с

Джерело озвучення:
Dzuski.com спільно з

Субтитри:
мова: українська (написи і пісні)
тип: програмні (м'які)
формат: *.

Субтитри:
мова: українська (повні)
тип: програмні (м'які)
формат: *.

Переклад і субтитри: Костянтин Hitler, Yamaha373
Текст читали: Trina_D (Dzuski.com), Lomaev (MelodicVoiceStudio)
Info
General
Unique ID : 197651656474285044681904881801808300349 (0x94B2530A50D7B397EBCBD272B203C93D)
Complete name : E:\ФанДаб\1Українізація\1Окультна Академія - Occult Academy - Seikimatsu Occult Gakuin\1\0\1\Seikimatsu Occult Gakuin - 01 [720p] - Епізод 01. Пророцтво Маї.
Format :
Format version : Version 4 / Version 2
File size : 687 MiB
Duration : 24 min 14 s
Overall bit rate mode : Variable
Overall bit rate : 3 962 kb/s
Encoded date : UTC 2018-10-19 20:43:28
Writing application : v25.0.0 ('Prog Noir') 64-bit
Writing library : libebml v1.3.6 + v1.4.9
Attachments : Calibri.ttf

Video
ID : 1
Format : AVC
Format/Info : Advanced Video Codec
Format profile : High [email protected]
Format settings : CABAC / 9 Ref Frames
Format settings, CABAC : Yes
Format settings, ReFrames : 9 frames
Codec ID : V_MPEG4/ISO/AVC
Duration : 24 min 12 s
Bit rate : 3 542 kb/s
Width : 1 280 pixels
Height : 720 pixels
Display aspect ratio : 16:9
Frame rate mode : Constant
Frame rate : 23.976 (24000/1001) FPS
Color space : YUV
Chroma subsampling : 4:2:0
Bit depth : 10 bits
Scan type : Progressive
Bits/(Pixel*Frame) : 0.160
Stream size : 613 MiB (89%)
Writing library : core 132 r2309 3b1f1f7
Encoding settings : cabac=1 / ref=9 / deblock=1:-2:-2 / analyse=0x3:0x133 / me=umh / subme=9 / psy=1 / psy_rd=0.90:0.00 / mixed_ref=1 / me_range=24 / chroma_me=1 / trellis=2 / 8x8dct=1 / cqm=0 / deadzone=21,11 / fast_pskip=1 / chroma_qp_offset=-2 / threads=12 / lookahead_threads=2 / sliced_threads=0 / nr=0 / decimate=0 / interlaced=0 / bluray_compat=0 / constrained_intra=0 / bframes=8 / b_pyramid=2 / b_adapt=2 / b_bias=0 / direct=1 / weightb=1 / open_gop=0 / weightp=2 / keyint=250 / keyint_min=23 / scenecut=40 / intra_refresh=0 / rc=crf / mbtree=0 / crf=15.7 / qcomp=0.70 / qpmin=9 / qpmax=40 / qpstep=4 / ip_ratio=1.40 / pb_ratio=1.30 / aq=1:0.90
Default : No
Forced : No

Audio #1
ID : 2
Format : AC-3
Format/Info : Audio Coding 3
Commercial name : Dolby Digital
Codec ID : A_AC3
Duration : 24 min 14 s
Bit rate mode : Constant
Bit rate : 192 kb/s
Channel(s) : 2 channels
Channel layout : L R
Sampling rate : 48.0 kHz
Frame rate : 31.250 FPS (1536 SPF)
Bit depth : 16 bits
Compression mode : Lossy
Stream size : 33.3 MiB (5%)
Title : Українська (Trina_D, Lomaev)
Language : Ukrainian
Service kind : Complete Main
Default : Yes
Forced : Yes

Audio #2
ID : 3
Format : Vorbis
Format settings, Floor : 1
Codec ID : A_VORBIS
Duration : 24 min 12 s
Bit rate mode : Variable
Bit rate : 256 kb/s
Channel(s) : 2 channels
Sampling rate : 48.0 kHz
Frame rate : 82.429 FPS (582 SPF)
Detected bit depth : 16 bits
Compression mode : Lossy
Stream size : 39.5 MiB (6%)
Title : Оригінал
Writing library : libVorbis (Schaufenugget) (20101101 (Schaufenugget))
Language : Japanese
Default : No
Forced : No

Text #1
ID : 4
Format :
Codec ID : S_TEXT/
Codec ID/Info : Advanced Sub Station Alpha
Duration : 23 min 3 s
Bit rate : 37 b/s
Count of elements : 71
Compression mode : Lossless
Stream size : 6.38 KiB (0%)
Title : Написи (Костянтин Hitler, Yamaha373)
Language : Ukrainian
Default : Yes
Forced : Yes

Text #2
ID : 5
Format :
Codec ID : S_TEXT/
Codec ID/Info : Advanced Sub Station Alpha
Duration : 24 min 4 s
Bit rate : 161 b/s
Count of elements : 374
Compression mode : Lossless
Stream size : 28.4 KiB (0%)
Title : Повні (Костянтин Hitler, Yamaha373)
Language : Ukrainian
Default : No
Forced : No
Скріншоти



Джерело:
Постер: Otaku-First
Особиста оцінка: 10 - без зайвих вагань рекомендую всім!


Авторський реліз (завантажувати можна без реєстрації)
 Трекер:    Зареєстрований   

Завантажити / скачати аніме українською



відео для новачків



 Зареєстрований:   2018-11-01 23:14
 Розмір:   1.32 GB 
 Оцінка аніме:   8.3/10 (Голосів: 6)
   
EvGaS 
Відео Гуртом - субтитрування
Відео Гуртом - субтитрування


З нами з: 27.02.12
Востаннє: 15.11.18
Повідомлень: 5068

2018-10-20 04:40  
Специфічна пародія в стилі Башти Дураґи (*найвдаліший випадок) і їй подібним. Всі вони мають схожий вигляд і схожий різновид гумору знущань з усіляких традицій та укладів якихось жанрів. Будь то Підземелля й Дракони, мульти про кафетерію, чи про містику, як у даному випадку.

Серед українського глядача взагалі непоширені, та й мені не надто цікаві (занадто вже прямолінійні знущання з кліше), але вже точно мають отримати власного глядача. І хоча воно якось ніколи й не було мегапопулярним за тими ж рейтингами, те, що його подібне продовжують штампувати — все ж, мабуть, має бути певна аудиторія, якій воно цікаве.
Якщо не сприймаєте япономульти-аніме через їхні недоліки — можете бути спокійними, тут ближче до недоліків західних мультиків для дітей, з їхньою активністю сцен та дій)) Тому з певною обмовкою можна й дивитись не анімешникам.

Тож якщо вам було ліньки читати багато тексту:
Чи дивитись, чи ні? Ну, якщо у вас відчуття, що маєте незвичне почуття гумору — то обов’язково. Може, випадком, це саме воно, ваше.

hetzendorf 
Відео Гуртом - підтримка та поширення
Відео Гуртом - підтримка та поширення


З нами з: 23.07.15
Востаннє: 16.11.18
Повідомлень: 1409

2018-10-20 19:01  
На афіші архітектура золотоглаво-білокам'яної столиці країни-агресора. Події серіялу відбуваються саме там?
Konstantin_Exorcist 
Частий відвідувач


З нами з: 18.11.14
Востаннє: 16.11.18
Повідомлень: 45

2018-10-20 21:34  
hetzendorf написано:
Yamaha373

Ти це серйозно прийняв за МГУ чи просто прешся?
Ні, місце дії Японія, навіть місто справжнє, на карті знайти можна.

hetzendorf 
Відео Гуртом - підтримка та поширення
Відео Гуртом - підтримка та поширення


З нами з: 23.07.15
Востаннє: 16.11.18
Повідомлень: 1409

2018-10-21 00:58  
Konstantin_Exorcist написано:
Ти це серйозно прийняв за МГУ

Ну пентаграма на шпилі та коло у віночку на фронтоні начебто символізують ^_^ Та й будівлі на другому плані теж не Варшаву нагадують.
Konstantin_Exorcist написано:
Yamaha373

Що?

Konstantin_Exorcist 
Частий відвідувач


З нами з: 18.11.14
Востаннє: 16.11.18
Повідомлень: 45

2018-10-21 14:47  
hetzendorf
Цитата:
Що?

Та то я випадково не те вставив.

Konstantin_Exorcist 
Частий відвідувач


З нами з: 18.11.14
Востаннє: 16.11.18
Повідомлень: 45

2018-11-01 23:21  
Додано другу серію.

WXevaovm 
Новенький


З нами з: 11.02.17
Востаннє: 15.11.18
Повідомлень: 9

2018-11-04 21:45  
Чудово! Якісна картинка, багато динаміки, добрий гумор, є якась інтрига. Не чекав нічого хорошого від такої комбінації тегів і анотації, але мої побоювання не виправдалися. Враження після перших двох серій дуже гарні, можу сказати, що авторам було б нелегко злити в подальших серіях. Вигідно виділяється серед інших незавершених комедій.
Ваш часовий пояс: GMT + 2 Години

Нова тема   Відповісти