Нестримні трилогія / The Expendables (2010 / 2012 / 2014) UHD Remux 2160p 4K HDR H.265 Ukr/Eng | Sub Eng

Нові коментарі

Нова тема   Відповісти
Автор Повідомлення
Documentalist 
Свій


З нами з: 04.06.17
Востаннє: 13.12.18
Повідомлень: 53

2018-10-19 22:34  
Нестримні трилогія / The Expendables trilogy (2010 / 2012 / 2014) UHD Remux 2160p 4K HDR H.265 Ukr/Eng | Sub Eng

Нестримні трилогія / The Expendables (2010 / 2012 / 2014) UHD Remux 2160p 4K HDR H.265 Ukr/Eng | Sub Eng
Нестримнi / The Expendables (2010) UHD Remux 2160p H.265 2xUKR/ENG | Sub Eng
Нестримнi (2010) UHD Remux 2160p H.265 2xUKR/ENG


Нестримні трилогія / The Expendables (2010 / 2012 / 2014) UHD Remux 2160p 4K HDR H.265 Ukr/Eng | Sub Eng


Жанр: екшн, пригодницький, триллер
Країна: США



Кінокомпанія: Millennium Films, Nu Image Films, Rogue Marble
Режисер: Сільвестер Сталлоне (Sylvester Stallone)
Актори: Сільвестер Сталлоне (Sylvester Stallone), Джейсон Стетхем (Jason Statham), Джет Лі (Jet Li), Дольф Лундгрен (Dolph Lundgren), Міккі Рурк (Mickey Rourke), Ерік Робертс (Eric Roberts), Стів Остін (Steve Austin), Харізма Карпентер (Charisma Carpenter), Гарі Деніелс (Gary Daniels), Арнольд Шварценеггер (Arnold Schwarzenegger), Брюс Вілліс (Bruce Willis)

Сюжет:
Нова стрічка Сільвестра Сталлоне чудово відповідає всій його фільмографії. Цього разу головними героями є команда найманих "мисливців за головами", які за гроші Сполучених Штатів вирушають до Латинської Америки, аби повалити режим кривавого диктатора, котрий відзначився масовими репресіями, вбивством американських заручників та ворожою зовнішньою політикою. Досить швидко командос розуміють, що в цих джунглях вони самі за себе - їх ніхто не підтримуватиме і не допомагатиме, для всього світу, який прагне зберегти таємницю замовлення, вони вже давно відпрацьований матеріал...


Тривалість: 01:43:27
Якість: UHD Remux 2160p
Відео:
кодек: H.265
розмір кадру: 3840x2160
бітрейт: 68.1 Мб/с
бітова глибина: 10 біт
кольоровий простір: BT.2020 (HDR)

Аудіо:
мова: українська
переклад: професійний дубльований
кодек: 2.0
бітрейт: 192 кб/с

Аудіо: # 2
мова: українська
переклад: багатоголосий закадровий
кодек: 2.0
бітрейт: 192 кб/с

Аудіо: # 3
мова: англійська
переклад: оригінал
кодек: -HD MA 7.1
бітрейт: 5697 Мб/с

Субтитри# 1-2
мова: англiйcька
тип: програмні (м'які)
формат: *.srt

Субтитри# 3
мова: нiмецька
тип: програмні (м'які)
формат: *.srt
Info
Format :
Format version : Version 4
File size : 53.6 GiB
Duration : 1 h 43 min
Overall bit rate mode : Variable
Overall bit rate : 74.2 Mb/s
Movie name : Нестримнi
Encoded date : UTC 2018-10-18 16:37:01
Writing application : v7.8.0 ('River Man') 32bit built on Apr 3 2015 12:11:22
Writing library : libebml v1.3.1 + v1.4.2
Cover : Yes
Attachments : cover.jpg

Video
ID : 1
Format : HEVC
Format/Info : High Efficiency Video Coding
Commercial name : HDR10
Format profile : Main [email protected]@High
Codec ID : V_MPEGH/ISO/HEVC
Duration : 1 h 43 min
Bit rate : 68.1 Mb/s
Width : 3 840 pixels
Height : 2 160 pixels
Display aspect ratio : 16:9
Frame rate mode : Constant
Frame rate : 23.976 (24000/1001) FPS
Color space : YUV
Chroma subsampling : 4:2:0 (Type 2)
Bit depth : 10 bits
Bits/(Pixel*Frame) : 0.343
Stream size : 49.2 GiB (92%)
Title : Нестримнi
Writing library : ATEME Titan File 3.7.9 (4.7.9.0)
Language : Ukrainian
Default : Yes
Forced : No
Color range : Limited
Color primaries : BT.2020
Transfer characteristics : PQ
Matrix coefficients : BT.2020 non-constant
Mastering display color pri : Display P3
Mastering display luminance : min: 0.0000 cd/m2, max: 1000 cd/m2
Maximum Content Light Level : 1000 cd/m2
Maximum Frame-Average Light : 446 cd/m2

Audio #1
ID : 2
Format : AC-3
Format/Info : Audio Coding 3
Commercial name : Dolby Digital
Codec ID : A_AC3
Duration : 1 h 43 min
Bit rate mode : Constant
Bit rate : 192 kb/s
Channel(s) : 2 channels
Channel layout : L R
Sampling rate : 48.0 kHz
Frame rate : 31.250 FPS (1536 SPF)
Bit depth : 16 bits
Compression mode : Lossy
Stream size : 142 MiB (0%)
Title : 1+1
Language : Ukrainian
Service kind : Complete Main
Default : Yes
Forced : Yes

Audio #2
ID : 3
Format : AC-3
Format/Info : Audio Coding 3
Commercial name : Dolby Digital
Codec ID : A_AC3
Duration : 1 h 43 min
Bit rate mode : Constant
Bit rate : 192 kb/s
Channel(s) : 2 channels
Channel layout : L R
Sampling rate : 48.0 kHz
Frame rate : 31.250 FPS (1536 SPF)
Bit depth : 16 bits
Compression mode : Lossy
Stream size : 142 MiB (0%)
Title : ICTV
Language : Ukrainian
Service kind : Complete Main
Default : No
Forced : No

Audio #3
ID : 4
Format : XLL
Format/Info : Digital Theater Systems
Commercial name : -HD Master Audio
Codec ID : A_DTS
Duration : 1 h 43 min
Bit rate mode : Variable
Bit rate : 5 697 kb/s
Channel(s) : 8 channels
Channel layout : C L R LFE Lb Rb Lss Rss
Sampling rate : 48.0 kHz
Frame rate : 93.750 FPS (512 SPF)
Bit depth : 24 bits
Compression mode : Lossless
Stream size : 4.12 GiB (8%)
Title : Орiгiнальна
Language : English
Default : No
Forced : Yes

Text #1
ID : 5
Format : UTF-8
Codec ID : S_TEXT/UTF8
Codec ID/Info : UTF-8 Plain Text
Duration : 1 h 29 min
Bit rate : 41 b/s
Count of elements : 870
Stream size : 27.2 KiB (0%)
Language : English
Default : Yes
Forced : Yes

Text #2
ID : 6
Format : UTF-8
Codec ID : S_TEXT/UTF8
Codec ID/Info : UTF-8 Plain Text
Duration : 1 h 34 min
Bit rate : 44 b/s
Count of elements : 1058
Stream size : 30.5 KiB (0%)
Language : English
Default : No
Forced : No

Text #3
ID : 7
Format : UTF-8
Codec ID : S_TEXT/UTF8
Codec ID/Info : UTF-8 Plain Text
Duration : 1 h 33 min
Bit rate : 46 b/s
Count of elements : 769
Stream size : 31.5 KiB (0%)
Language : German
Default : No
Forced : No
Скрiншоти




Нестримнi 2 / The Expendables 2 (2012) UHD Remux 2160p H.265 UKR/ENG | Sub Eng
Нестримнi 2 / The Expendables 2 (2012) UHD Remux 2160p H.265 UKR/ENG


Нестримні трилогія / The Expendables (2010 / 2012 / 2014) UHD Remux 2160p 4K HDR H.265 Ukr/Eng | Sub Eng


Жанр: екшн, пригодницький, триллер
Країна: США



Кінокомпанія: Millennium Films, Nu Image Films, Rogue Marble
Режисер: Сільвестер Сталлоне (Sylvester Stallone)
Актори: Сильвестер Сталлоне, Джейсон Стетгем, Джет Лі, Дольф Лундґрен, Чак Норріс, Террі Крюс, Ренді Кутюр, Ліам Гемсворт, Жан-Клод Ван Дамм, Брюс Вілліс, Арнольд Шварценеґґер

Сюжет:
Містер Чарч доручає команді Нестримних виконати, здавалося б, просту роботу. На перший погляд, для Барні та його банди досвідчених найманців, це завдання виглядає лише як легкий спосіб підзаробити. Але щось пішло не так і одного з команди жорстоко вбивають. Тепер, щоб помститися, Нестримні вирушають на ворожу територію, де всі ставки зроблено проти них.


Тривалість: 01:42:41
Якість: UHD Remux 2160p
Відео:
кодек: H.265
розмір кадру: 3840x2160
бітрейт: 69.3 Мб/с
бітова глибина: 10 біт
кольоровий простір: BT.2020 (HDR)

Аудіо:
мова: українська
переклад: багатоголосий закадровий
кодек: 2.0
бітрейт: 192 кб/с

Аудіо: # 3
мова: англійська
переклад: оригінал
кодек: -HD MA 7.1
бітрейт: 5579 Мб/с

Субтитри# 1-2
мова: англiйcька
тип: програмні (м'які)
формат: *.srt
Info
Format :
Format version : Version 4
File size : 53.9 GiB
Duration : 1 h 42 min
Overall bit rate mode : Variable
Overall bit rate : 75.1 Mb/s
Movie name : Нестримнi 2
Encoded date : UTC 2018-10-19 01:45:49
Writing application : v7.8.0 ('River Man') 32bit built on Apr 3 2015 12:11:22
Writing library : libebml v1.3.1 + v1.4.2
Cover : Yes
Attachments : cover.jpg

Video
ID : 1
Format : HEVC
Format/Info : High Efficiency Video Coding
Commercial name : HDR10
Format profile : Main [email protected]@High
Codec ID : V_MPEGH/ISO/HEVC
Duration : 1 h 42 min
Bit rate : 69.3 Mb/s
Width : 3 840 pixels
Height : 2 160 pixels
Display aspect ratio : 16:9
Frame rate mode : Constant
Frame rate : 23.976 (24000/1001) FPS
Color space : YUV
Chroma subsampling : 4:2:0 (Type 2)
Bit depth : 10 bits
Bits/(Pixel*Frame) : 0.348
Stream size : 49.7 GiB (92%)
Title : Нестримнi
Writing library : ATEME Titan File 3.7.9 (4.7.9.0)
Language : Ukrainian
Default : Yes
Forced : No
Color range : Limited
Color primaries : BT.2020
Transfer characteristics : PQ
Matrix coefficients : BT.2020 non-constant
Mastering display color pri : Display P3
Mastering display luminance : min: 0.0000 cd/m2, max: 1000 cd/m2
Maximum Content Light Level : 1000 cd/m2
Maximum Frame-Average Light : 446 cd/m2

Audio #1
ID : 2
Format : AC-3
Format/Info : Audio Coding 3
Commercial name : Dolby Digital
Codec ID : A_AC3
Duration : 1 h 42 min
Bit rate mode : Constant
Bit rate : 192 kb/s
Channel(s) : 2 channels
Channel layout : L R
Sampling rate : 48.0 kHz
Frame rate : 31.250 FPS (1536 SPF)
Bit depth : 16 bits
Compression mode : Lossy
Stream size : 141 MiB (0%)
Title : ICTV
Language : Ukrainian
Service kind : Complete Main
Default : Yes
Forced : Yes

Audio #2
ID : 3
Format : MLP FBA 16-ch
Format/Info : Meridian Lossless Packing FBA with 16-channel presentation
Commercial name : Dolby TrueHD with Dolby Atmos
Codec ID : A_TRUEHD
Duration : 1 h 42 min
Bit rate mode : Variable
Bit rate : 5 579 kb/s
Maximum bit rate : 10.1 Mb/s
Channel(s) : 8 channels
Channel layout : L R C LFE Ls Rs Lb Rb
Sampling rate : 48.0 kHz
Frame rate : 1 200.000 FPS (40 SPF)
Compression mode : Lossless
Stream size : 4.00 GiB (7%)
Title : [Atmos 7.1-Original]
Language : English
Default : No
Forced : Yes
Number of dynamic objects : 15
Bed channel count : 1 channel
Bed channel configuration : LFE

Text #1
ID : 4
Format : UTF-8
Codec ID : S_TEXT/UTF8
Codec ID/Info : UTF-8 Plain Text
Duration : 1 h 29 min
Bit rate : 42 b/s
Count of elements : 988
Stream size : 28.2 KiB (0%)
Language : English
Default : Yes
Forced : Yes

Text #2
ID : 5
Format : UTF-8
Codec ID : S_TEXT/UTF8
Codec ID/Info : UTF-8 Plain Text
Duration : 1 h 31 min
Bit rate : 47 b/s
Count of elements : 1160
Stream size : 32.1 KiB (0%)
Title : SDH
Language : English
Default : No
Forced : No

Menu
00:00:00.000 : en:Chapter 01
00:10:03.436 : en:Chapter 02
00:18:05.417 : en:Chapter 03
00:24:54.868 : en:Chapter 04
00:28:42.846 : en:Chapter 05
00:31:31.556 : en:Chapter 06
00:39:10.681 : en:Chapter 07
00:48:53.305 : en:Chapter 08
00:54:34.437 : en:Chapter 09
00:59:23.935 : en:Chapter 10
01:04:30.116 : en:Chapter 11
01:07:14.447 : en:Chapter 12
01:13:42.459 : en:Chapter 13
01:20:17.354 : en:Chapter 14
01:28:26.676 : en:Chapter 15
01:31:24.479 : en:Chapter 16
01:42:39.736 : en:Chapter 17
Скрiншоти







Нестримнi 3 / The Expendables 3 (2014) UHD Remux 2160p H.265 UKR/ENG | Sub Eng
Нестримнi 3 / The Expendables 3 (2014) UHD Remux 2160p H.265 UKR/ENG


Нестримні трилогія / The Expendables (2010 / 2012 / 2014) UHD Remux 2160p 4K HDR H.265 Ukr/Eng | Sub Eng


Жанр: екшн, пригодницький, триллер
Країна: США



Кінокомпанія: Millennium Films, Nu Image Films, Rogue Marble
Режисер: Патрік Г'юз / Patrick Hughes
Актори: Сільвестр Сталоне / Sylvester Stallone, Джейсон Стетгем / Jason Statham, Мел Ґібсон / Mel Gibson, Гарісон Форд / Harrison Ford, Антоніо Бандерас / Antonio Banderas, Веслі Снайпс / Wesley Snipes, Дольф Лунґрен / Dolph Lundgren, Арнольд Шварценеґер / Arnold Schwarzenegger, Ренді Кутюр / Randy Couture, Тері Крюс / Terry Crews, Келсі Ґремер / Kelsey Grammer та інші

Сюжет:
Старий кінь борозни не зіпсує – професіоналізм завжди допомагав членам команди з легкістю виходити з будь-якої сутички та знешкоджувати найнебезпечніших злочинців. Цього разу голова загону Барні Росс стикається з ворогом, який виявився сильнішим, ніж це здавалося спочатку. Конрад Стоунбенкс вижив після спроби його вбити і тепер поставив собі за мету знищити групу найманців. Аби зміцнити свої позиції непереможних бійців, Росс вирішує підсилити команду та кличе на допомогу молоде покоління.


Тривалість: 02:06:27
Якість: UHD Remux 2160p
Відео:
кодек: H.265
розмір кадру: 3840x2160
бітрейт: 55.0 Мб/с
бітова глибина: 10 біт
кольоровий простір: BT.2020 (HDR)

Аудіо:
мова: українська
переклад: професійний дубльований
кодек: 2.0
бітрейт: 192 кб/с

Аудіо: # 3
мова: англійська
переклад: оригінал
кодек: -HD MA 7.1
бітрейт: 4197 Мб/с

Субтитри# 1-2
мова: англiйcька
тип: програмні (м'які)
формат: *.srt
Info

Format :
Format version : Version 4
File size : 52.4 GiB
Duration : 2 h 6 min
Overall bit rate mode : Variable
Overall bit rate : 59.4 Mb/s
Movie name : Нестримнi 3
Encoded date : UTC 2018-10-19 11:41:48
Writing application : v7.8.0 ('River Man') 32bit built on Apr 3 2015 12:11:22
Writing library : libebml v1.3.1 + v1.4.2
Cover : Yes
Attachments : cover.jpg

Video
ID : 1
Format : HEVC
Format/Info : High Efficiency Video Coding
Commercial name : HDR10
Format profile : Main [email protected]@High
Codec ID : V_MPEGH/ISO/HEVC
Duration : 2 h 6 min
Bit rate : 55.0 Mb/s
Width : 3 840 pixels
Height : 2 160 pixels
Display aspect ratio : 16:9
Frame rate mode : Constant
Frame rate : 23.976 (24000/1001) FPS
Color space : YUV
Chroma subsampling : 4:2:0 (Type 2)
Bit depth : 10 bits
Bits/(Pixel*Frame) : 0.277
Stream size : 48.5 GiB (93%)
Title : Нестримнi 3
Writing library : ATEME Titan KFE 3.7.3 (4.7.3.1003)
Language : Ukrainian
Default : Yes
Forced : No
Color range : Limited
Color primaries : BT.2020
Transfer characteristics : PQ
Matrix coefficients : BT.2020 non-constant
Mastering display color pri : Display P3
Mastering display luminance : min: 0.0050 cd/m2, max: 4000 cd/m2

Audio #1
ID : 2
Format : AC-3
Format/Info : Audio Coding 3
Commercial name : Dolby Digital
Codec ID : A_AC3
Duration : 2 h 6 min
Bit rate mode : Constant
Bit rate : 192 kb/s
Channel(s) : 2 channels
Channel layout : L R
Sampling rate : 48.0 kHz
Frame rate : 31.250 FPS (1536 SPF)
Bit depth : 16 bits
Compression mode : Lossy
Stream size : 173 MiB (0%)
Title : LineIn
Language : Ukrainian
Service kind : Complete Main
Default : Yes
Forced : Yes

Audio #2
ID : 3
Format : XLL
Format/Info : Digital Theater Systems
Commercial name : -HD Master Audio
Codec ID : A_DTS
Duration : 2 h 6 min
Bit rate mode : Variable
Bit rate : 4 197 kb/s
Channel(s) : 8 channels
Channel layout : C L R LFE Lb Rb Lss Rss
Sampling rate : 48.0 kHz
Frame rate : 93.750 FPS (512 SPF)
Bit depth : 24 bits
Compression mode : Lossless
Stream size : 3.70 GiB (7%)
Language : English
Default : No
Forced : Yes

Text #1
ID : 4
Format : UTF-8
Codec ID : S_TEXT/UTF8
Codec ID/Info : UTF-8 Plain Text
Duration : 1 h 54 min
Bit rate : 41 b/s
Count of elements : 1325
Stream size : 34.5 KiB (0%)
Title : full
Language : English
Default : No
Forced : No

Text #2
ID : 5
Format : UTF-8
Codec ID : S_TEXT/UTF8
Codec ID/Info : UTF-8 Plain Text
Duration : 1 h 54 min
Bit rate : 51 b/s
Count of elements : 1600
Stream size : 42.9 KiB (0%)
Title : SDH
Language : English
Default : No
Forced : No

Menu
00:00:00.000 : en: Chapter 1
00:07:06.801 : en: Chapter 2
00:12:41.302 : en: Chapter 3
00:21:44.595 : en: Chapter 4
00:29:30.936 : en: Chapter 5
00:35:39.137 : en: Chapter 6
00:41:50.258 : en: Chapter 7
00:48:04.381 : en: Chapter 8
00:54:12.458 : en: Chapter 9
01:00:05.018 : en: Chapter 10
01:10:42.321 : en: Chapter 11
01:19:16.794 : en: Chapter 12
01:28:05.071 : en: Chapter 13
01:34:28.121 : en: Chapter 14
01:43:14.271 : en: Chapter 15
01:51:10.914 : en: Chapter 16
Скрiншоти







Золотий реліз (завантажене не впливає на рейтинг)
 Трекер:    Зареєстрований   

Завантажити / скачати фільм українською



відео для новачків



 Зареєстрований:   2018-10-20 16:50
 Розмір:   159.88 GB 
 Оцінка фільму:   8.6/10 (Голосів: 10)
   
wolfie 
Новенький


З нами з: 16.10.10
Востаннє: 10.12.18
Повідомлень: 1

2018-10-20 13:32  
о боги, трІлогія, пане Азіров перелогінтесь
Documentalist 
Свій


З нами з: 04.06.17
Востаннє: 13.12.18
Повідомлень: 53

2018-10-20 15:06  
Дякую за поправку
olenka 32 
Новенький


З нами з: 16.01.15
Востаннє: 14.12.18
Повідомлень: 6

2018-10-21 15:33  
Опис другої та третьої частин збігається. Невже сюжети настільки однакові? Happy
11FrYkT 
Модератор відео


З нами з: 20.02.11
Востаннє: 14.12.18
Повідомлень: 5261

2018-10-22 07:49  
Documentalist , в заголовках не описані субтитри. Також в третій частині параметри з 2.
Надалі звертайте увагу бо не зрозуміло для чого Ви форсуєте англ доріжку + англ субтитри

Documentalist 
Свій


З нами з: 04.06.17
Востаннє: 13.12.18
Повідомлень: 53

2018-10-22 16:35  
11FrYkT
нiчого не форсував.

11FrYkT 
Модератор відео


З нами з: 20.02.11
Востаннє: 14.12.18
Повідомлень: 5261

2018-10-22 16:59  
Documentalist написано:

11FrYkT
нiчого не форсував.

значить було і надалі знімайте

sa44ik 
Новенький


З нами з: 13.09.13
Востаннє: 08.12.18
Повідомлень: 6

2018-11-19 19:46  
де швидкість народ?
igor911 
Відео Гуртом
Відео Гуртом


З нами з: 18.01.08
Востаннє: 14.12.18
Повідомлень: 11605

2018-11-19 19:55  
sa44ik написано:
де швидкість народ?

в профілі sa44ik написано:
Рейтинг: 0.08
Роздає - немає

де рейтинг і чому не роздаєш раніше завантажені релізи? Повір, все у цьому світі пов'язане.

sa44ik 
Новенький


З нами з: 13.09.13
Востаннє: 08.12.18
Повідомлень: 6

2018-11-19 22:47  
igor911
нажаль у мене вінчестер на 120 гб , немає змоги роздавати тривалий час те що качаю(

igor911 
Відео Гуртом
Відео Гуртом


З нами з: 18.01.08
Востаннє: 14.12.18
Повідомлень: 11605

2018-11-19 22:57  
sa44ik написано:
нажаль у мене вінчестер на 120 гб

тоді це виходить щось на кшалт "купив потужну машину з салона, але не маю грошей на бензин" - 4K телек / 120 гб вінт ?

sa44ik 
Новенький


З нами з: 13.09.13
Востаннє: 08.12.18
Повідомлень: 6

2018-11-20 19:35  
igor911
Та ні до минулого тижня був телек з full hd і hd плеєром asus o play зі встроєним hd , хватало , зараз уже буду думати над покупкою якогось вінта)
P.S і машина у мене е60 535d .і на дизель хватає вроді,як уже не буде хватать то мотоцикл є він поменше бере)))

f1lia 
Новенький


З нами з: 25.02.15
Востаннє: 10.12.18
Повідомлень: 7

2018-11-24 11:55  
Ну народ так не серйозно. я б роздавав але дайте скачати. і так не перший реліз (
ivic4u 
Новенький


З нами з: 27.11.17
Востаннє: 12.12.18
Повідомлень: 6

2018-12-06 18:43  
дайте докачати, 87% вже тиждень... нічого не допомагає
Ваш часовий пояс: GMT + 2 Години

Нова тема   Відповісти