Хенкок / Hancock (2008) AVC [Unrated] Ukr/Eng

Нові коментарі

Нова тема   Відповісти
Автор Повідомлення
staf777 
Відео Гуртом - підтримка та поширення
Відео Гуртом - підтримка та поширення


З нами з: 16.11.16
Востаннє: 12.11.19
Повідомлень: 3017

2018-10-19 20:24  
Хенкок / Hancock (2008) AVC [Unrated] Ukr/Eng



Жанр: Фантастика, бойовик, комедія, драма
Країна: США



Кінокомпанія: Columbia Pictures
Режисер: Пітер Берг
Актори: Віл Сміт, Шарліз Терон, Валері Езлін, Джейсон Бейтман, Стефен Бішоп, Саманта Кенон, Кейт Кларк, Ши Керрі, Кайла Данг

Сюжет:
Є герої, є супергерої, і є Хенкок. Володіння надздібностями припускає відповідальність, всі знають це — окрім нього. За будь-яке завдання він береться з душею і кращими намірами, врятовує життя людей — ціною нелюдських руйнувань і незліченного збитку. Врешті-решт, терпіння громадськості добігає кінця: люди вдячні своєму місцевому героєві, але іноді не розуміють, чим заслужили таке покарання.
Хенкок не з тих хлопців, кого хвилює якась там громадська думка, але одного разу, після чергового подвигу, рятуючи високопоставленого піарника Рея, він раптом розуміє, що в деякому розумінні він може бути уразливий. З цим важко змиритися, особливо на думку Мері, дружини Рея, яка вважає, що Хенкок просто безнадійний.


Тривалість: 01:42:14
Якість: AVC [Unrated]
Відео:
кодек:
розмір кадру: 1024x428
бітрейт: 2021 кб/с

Аудіо # 1:
мова: українська
переклад: професійний дубльований [На місця без перекладу є укр.саби]
кодек: 5.1
бітрейт: 448 кб/с

Аудіо # 2:
мова: англійська
переклад: оригінал
кодек: 5.1
бітрейт: 448 кб/с

Джерело озвучення:


Субтитри: [Форсовані на місця без перекладу]
мова: українська
тип: програмні (м'які)
формат: *.srt
Скріншоти






MI
General
Unique ID : 175163208338770334999370506703115445332 (0x83C734F176F1A69EF24BB1E76814E454)
Complete name : S:\Фільми AVC\Фантастика\Hancock (2008) AVC [Unrated] [UKR_ENG] [Hurtom].
Format :
Format version : Version 4 / Version 2
File size : 2.08 GiB
Duration : 1 h 42 min
Overall bit rate : 2 918 kb/s
Movie name : Hancock (2008) AVC [Unrated] [UKR_ENG] [Hurtom]
Encoded date : UTC 2018-10-20 15:46:55
Writing application : v24.0.0 ('Beyond The Pale') 64-bit
Writing library : libebml v1.3.6 + v1.4.9
Cover : Yes
Attachments : cover.jpg

Video
ID : 1
Format : AVC
Format/Info : Advanced Video Codec
Format profile : [email protected]
Format settings : CABAC / 10 Ref Frames
Format settings, CABAC : Yes
Format settings, ReFrames : 10 frames
Codec ID : V_MPEG4/ISO/AVC
Duration : 1 h 42 min
Bit rate : 2 021 kb/s
Width : 1 024 pixels
Height : 428 pixels
Display aspect ratio : 2.40:1
Frame rate mode : Constant
Frame rate : 23.976 FPS
Color space : YUV
Chroma subsampling : 4:2:0
Bit depth : 8 bits
Scan type : Progressive
Bits/(Pixel*Frame) : 0.192
Stream size : 1.44 GiB (69%)
Writing library : core 92 r1510 33d382a
Encoding settings : cabac=1 / ref=10 / deblock=1:-2:-1 / analyse=0x3:0x113 / me=umh / subme=8 / psy=1 / psy_rd=1.00:0.20 / mixed_ref=1 / me_range=32 / chroma_me=1 / trellis=1 / 8x8dct=1 / cqm=0 / deadzone=21,11 / fast_pskip=0 / chroma_qp_offset=-3 / threads=3 / sliced_threads=0 / nr=0 / decimate=1 / interlaced=0 / constrained_intra=0 / bframes=5 / b_pyramid=2 / b_adapt=2 / b_bias=0 / direct=3 / wpredb=1 / wpredp=2 / keyint=250 / keyint_min=25 / scenecut=40 / intra_refresh=0 / rc=2pass / mbtree=0 / bitrate=2021 / ratetol=1.0 / qcomp=0.60 / qpmin=10 / qpmax=51 / qpstep=4 / cplxblur=20.0 / qblur=0.5 / ip_ratio=1.40 / pb_ratio=1.30 / aq=1:1.00
Default : Yes
Forced : No

Audio #1
ID : 2
Format : AC-3
Format/Info : Audio Coding 3
Codec ID : A_AC3
Duration : 1 h 42 min
Bit rate mode : Constant
Bit rate : 448 kb/s
Channel(s) : 6 channels
Channel positions : Front: L C R, Side: L R, LFE
Sampling rate : 48.0 kHz
Frame rate : 31.250 FPS (1536 SPF)
Bit depth : 16 bits
Compression mode : Lossy
Stream size : 328 MiB (15%)
Language : Ukrainian
Service kind : Complete Main
Default : Yes
Forced : Yes

Audio #2
ID : 3
Format : AC-3
Format/Info : Audio Coding 3
Codec ID : A_AC3
Duration : 1 h 42 min
Bit rate mode : Constant
Bit rate : 448 kb/s
Channel(s) : 6 channels
Channel positions : Front: L C R, Side: L R, LFE
Sampling rate : 48.0 kHz
Frame rate : 31.250 FPS (1536 SPF)
Bit depth : 16 bits
Compression mode : Lossy
Stream size : 328 MiB (15%)
Language : English
Service kind : Complete Main
Default : No
Forced : No

Text
ID : 4
Format : UTF-8
Codec ID : S_TEXT/UTF8
Codec ID/Info : UTF-8 Plain Text
Duration : 1 h 29 min
Bit rate : 22 b/s
Count of elements : 310
Stream size : 14.4 KiB (0%)
Language : Ukrainian
Default : Yes
Forced : Yes
Джерело: &
Особиста оцінка: 8 - мені сподобалося


 Трекер:    Зареєстрований   

Завантажити / скачати фільм українською



відео для новачків



 Зареєстрований:   2018-10-20 18:37
 Розмір:   2.08 GB 
 Оцінка фільму:   8/10 (Голосів: 19)
   
bot 
робот


З нами з: 30.09.07
Востаннє: 26.05.05
Повідомлень: 22453

2018-10-19 20:25  
Тему перенесено з Фільми до форуму Анонси релізів


staf777

roman116 
Свій


З нами з: 22.01.12
Востаннє: 11.11.19
Повідомлень: 88

2018-10-19 20:29  
Цитата:
Країна: Пітер Берг

Виправте, будь ласка)

Lil`Antoni 
VIP


З нами з: 25.02.12
Востаннє: 10.11.19
Повідомлень: 741

2018-10-20 11:05  
Як для мене,в нинішній час то краще 720p-mini який вже є у нас на тракері.
Різниці в ємності не велика буде )

Та дякую за таку роботу, може комусь та треба буде )))

staf777 
Відео Гуртом - підтримка та поширення
Відео Гуртом - підтримка та поширення


З нами з: 16.11.16
Востаннє: 12.11.19
Повідомлень: 3017

2018-10-20 17:37  
Lil`Antoni
Це не моя ініціатива - попросили викласти ...

bot 
робот


З нами з: 30.09.07
Востаннє: 26.05.05
Повідомлень: 22453

2018-10-20 18:37  
Тему перенесено з Анонси релізів до форуму Фільми


staf777

ced 
Свій


З нами з: 11.02.17
Востаннє: 12.11.19
Повідомлень: 99

2018-10-20 19:07  
Надздібність Віла Сміта - лизати путлеру за гроші. Сміта у смітник.
Varlemond 
Свій


З нами з: 03.06.12
Востаннє: 11.11.19
Повідомлень: 55

2018-10-21 14:05  
ced
Неохочу нікого образити і флудити - але чому Ви так вважаєте?

11FrYkT 
Модератор відео


З нами з: 20.02.11
Востаннє: 12.11.19
Повідомлень: 6316

2018-10-21 15:38  
staf777 написано:

Субтитри:
мова: українська
тип: програмні (м'які)
формат: *.srt

вказати що форсовані на місця без перекладу, також примітку в доріжці + видалити 2 торент

staf777 
Відео Гуртом - підтримка та поширення
Відео Гуртом - підтримка та поширення


З нами з: 16.11.16
Востаннє: 12.11.19
Повідомлень: 3017

2018-10-21 16:37  
11FrYkT
Зробив

staf777 
Відео Гуртом - підтримка та поширення
Відео Гуртом - підтримка та поширення


З нами з: 16.11.16
Востаннє: 12.11.19
Повідомлень: 3017

2018-10-21 20:31  
Varlemond
Да і мені цікаво

Ваш часовий пояс: GMT + 2 Години

Нова тема   Відповісти