Формула 1. Сезон 2018. Етап 18. Гран-Прі США. 1-3 практика (19.10.2018) HDTV 1080i

Нові коментарі

Нова тема   Відповісти
Останній раз роздавалося sergiyko.5 (2019-03-03)
Автор Повідомлення
sergiyko.5 
VIP


З нами з: 25.02.16
Востаннє: 25.10.20
Повідомлень: 3615

2018-10-19 20:10  
Формула 1. Сезон 2018. Етап 18. Гран-Прі США. 1-3 практика (19.10.2018) HDTV 1080i


Формула 1. Сезон 2018. Етап 18. Гран-Прі США. 1-3 практика (19.10.2018) HDTV 1080i

Жанр: Перегони Формула 1
Країна: США
Телеканал: Перший автомобільний
Коментатор: Павло Воробйов

Опис:
Вільна практика перша та друга вісімнадцятого етапу Гран-Прі США 2018 року відбулась 19 жовтня 2018 року о 18 та 22 годині та третя 20 жовтня о 21 годині за київським часом.


Тривалість: 01:39:03 + 01:39:16 + 01:09:22
Якість: HDTV

Відео:кодек: розмір кадру: 1920 х 1080 бітрейт: 5180 кб/с
Аудіо: мова: українська кодек: 2.0 бітрейт: 128 кб/с
Про файл:
General
Unique ID : 43590005502561317598833481896954441594 (0x20CB2133307E8484AFDECF883B682F7A)
Complete name : G:\Torrents2\SPORT\Formula 1\F1.2018.18.USA.Practice.1080i.HDTV\F1.2018.18.USA.Practice.1.1080i.HDTV.
Format :
Format version : Version 4 / Version 2
File size : 3.67 GiB
Duration : 1 h 39 min
Overall bit rate : 5 308 kb/s
Encoded date : UTC 2018-10-19 18:01:34
Writing application : v27.0.0 ('Metropolis') 64-bit
Writing library : libebml v1.3.6 + v1.4.9

Video
ID : 1
Format : AVC
Format/Info : Advanced Video Codec
Format profile : [email protected]
Format settings : CABAC / 4 Ref Frames
Format settings, CABAC : Yes
Format settings, ReFrames : 4 frames
Codec ID : V_MPEG4/ISO/AVC
Duration : 1 h 39 min
Bit rate : 5 180 kb/s
Width : 1 920 pixels
Height : 1 080 pixels
Display aspect ratio : 16:9
Frame rate mode : Variable
Frame rate : 25.682 FPS
Original frame rate : 25.000 FPS
Standard : Component
Color space : YUV
Chroma subsampling : 4:2:0
Bit depth : 8 bits
Scan type : MBAFF
Scan type, store method : Interleaved fields
Scan order : Top Field First
Bits/(Pixel*Frame) : 0.097
Stream size : 3.58 GiB (98%)
Language : English
Default : Yes
Forced : No
Color range : Limited
Color primaries : BT.709
Transfer characteristics : BT.709
Matrix coefficients : BT.709

Audio
ID : 2
Format :
Format/Info : Advanced Audio Codec
Format profile : LC
Codec ID : A_AAC-2
Duration : 1 h 39 min
Bit rate : 125 kb/s
Channel(s) : 2 channels
Channel positions : Front: L R
Sampling rate : 48.0 kHz
Frame rate : 46.875 FPS (1024 SPF)
Compression mode : Lossy
Stream size : 88.8 MiB (2%)
Language : Ukrainian
Default : Yes
Forced : No
Скріншоти:


Автор запису: sergiyko


Бронзовий реліз (на рейтинг впливає 75% завантаженого)
 Трекер:    Зареєстрований   

Завантажити / скачати торрент



відео для новачків



 Зареєстрований:   2018-10-21 08:02
 Розмір:   10.33 GB 
 Оцінка:   10/10 (Голосів: 6)
   
sergiyko.5 
VIP


З нами з: 25.02.16
Востаннє: 25.10.20
Повідомлень: 3615

2018-10-20 07:34  
Додав 2 практику.
armogun 
Попереджень: 1
Попереджень: 1 


З нами з: 04.05.13
Востаннє: 23.10.20
Повідомлень: 700

2018-10-20 14:39  
Сергія хочуть позбавити очка
sergiyko.5 
VIP


З нами з: 25.02.16
Востаннє: 25.10.20
Повідомлень: 3615

2018-10-21 08:02  
Додав третю практику.
Ваш часовий пояс: GMT + 2 Години

Нова тема   Відповісти