Вечірка (Сезон 1-2) (2018) 1080р

Нові коментарі

Нова тема   Відповісти
Останній раз роздавалося sergiyko.5 (2020-11-26)
Автор Повідомлення
sergiyko.5 
Забанено
Забанено


З нами з: 25.02.16
Востаннє: 29.10.20
Повідомлень: 3650

2018-10-19 18:59  
Вечірка (Сезон 1-2) (2018) 1080р

Вечірка (Сезон 1-2) (2018) 1080р


Жанр: молодіжний, комедія, романтичний
Країна: Україна
Кінокомпанія: ТЕТ
Режисер: Олексій Даруга
Актори: Гарік Бірча, Михайло Досенко, Настя Цимбалару, Ліза Любимова, Ольга Сидорченко, Сергій Анипченко, Павло Кружнов та інші.

Сюжет:
Гумористичний серіал про любов, пригоди й необдумані вчинки. За сюжетом серіалу, є двоє нерозлучних друзів. Одному з них дуже сподобалась дівчина, а інший — допомагає товаришу завоювати її серце. Вони влаштовують грандіозну вечірку, видаючи себе за мажорів. Для цього прокрадаються в заміський будинок депутата, який втік за кордон. Шампанське і господар будинку, що несподівано повернувся, роблять цю вечірку незабутньою.


Тривалість: 1 серія: 22:00 (цілком серій: 12+20)
Якість:

Відео: кодек: розмір кадру: 1920 х 1080 бітрейт: 5000 кб/с
Аудіо: мова: українська переклад: оригінал кодек: 2.0 бітрейт: 256 кб/с
Перелік серій
Сезон 1:
1 серія - 12 серія
Сезон 2:
1 серія - 20 серія
Про файл:
General
Unique ID : 117455481865460775194424460794384108191 (0x585D1A5BF5FEE0B289C092033A804A9F)
Complete name : G:\Torrents2\FILMS\Вечірка 1080p \Вечірка.S01E01.1080p..
Format :
Format version : Version 4 / Version 2
File size : 813 MiB
Duration : 21 min 43 s
Overall bit rate : 5 228 kb/s
Encoded date : UTC 2018-10-19 16:40:28
Writing application : v27.0.0 ('Metropolis') 64-bit
Writing library : libebml v1.3.6 + v1.4.9

Video
ID : 1
Format : AVC
Format/Info : Advanced Video Codec
Format profile : [email protected]
Format settings : CABAC / 6 Ref Frames
Format settings, CABAC : Yes
Format settings, ReFrames : 6 frames
Codec ID : V_MPEG4/ISO/AVC
Duration : 21 min 43 s
Bit rate : 4 971 kb/s
Width : 1 920 pixels
Height : 1 080 pixels
Display aspect ratio : 16:9
Frame rate mode : Constant
Frame rate : 25.000 FPS
Color space : YUV
Chroma subsampling : 4:2:0
Bit depth : 8 bits
Scan type : Progressive
Bits/(Pixel*Frame) : 0.096
Stream size : 773 MiB (95%)
Writing library : core 142 r2491 24e4fed
Encoding settings : cabac=1 / ref=6 / deblock=1:0:0 / analyse=0x3:0x113 / me=hex / subme=7 / psy=1 / psy_rd=1.00:0.00 / mixed_ref=1 / me_range=16 / chroma_me=1 / trellis=1 / 8x8dct=1 / cqm=0 / deadzone=21,11 / fast_pskip=1 / chroma_qp_offset=-2 / threads=12 / lookahead_threads=2 / sliced_threads=0 / nr=0 / decimate=1 / interlaced=0 / bluray_compat=0 / constrained_intra=0 / bframes=3 / b_pyramid=2 / b_adapt=1 / b_bias=0 / direct=1 / weightb=1 / open_gop=0 / weightp=2 / keyint=100 / keyint_min=10 / scenecut=40 / intra_refresh=0 / rc_lookahead=40 / rc=crf / mbtree=1 / crf=22.0 / qcomp=0.60 / qpmin=0 / qpmax=69 / qpstep=4 / vbv_maxrate=10000 / vbv_bufsize=20000 / crf_max=0.0 / nal_hrd=none / filler=0 / ip_ratio=1.41 / aq=1:1.00
Language : Ukrainian
Default : Yes
Forced : No

Audio
ID : 2
Format :
Format/Info : Advanced Audio Codec
Format profile : LC
Codec ID : A_AAC-2
Duration : 21 min 43 s
Bit rate : 256 kb/s
Channel(s) : 2 channels
Channel positions : Front: L R
Sampling rate : 44.1 kHz
Frame rate : 43.066 FPS (1024 SPF)
Compression mode : Lossy
Delay relative to video : -80 ms
Stream size : 39.8 MiB (5%)
Language : Ukrainian
Default : Yes
Forced : No
Скріншоти:



Золотий реліз (завантажене не впливає на рейтинг)
 Трекер:    Зареєстрований   

Завантажити / скачати український серіал



відео для новачків



 Зареєстрований:   2019-01-16 00:40
 Розмір:   25.77 GB 
 Оцінка серіалу:   8.5/10 (Голосів: 6)
   
t_telyuk 
Частий відвідувач


З нами з: 13.06.09
Востаннє: 29.11.20
Повідомлень: 39

2018-10-20 11:30  
дійсно... дякую
sergiyko.5 
Забанено
Забанено


З нами з: 25.02.16
Востаннє: 29.10.20
Повідомлень: 3650

2019-01-16 00:41  
Додав другй сезон.
Ваш часовий пояс: GMT + 2 Години

Нова тема   Відповісти