Літо 84 / Summer of 84 (2018) mini 1080p H.265 Eng | Sub Ukr/Eng

Нові коментарі

Нова тема   Відповісти
Останній раз роздавалося hatak (2020-11-27)
Автор Повідомлення
Anonymous 







2018-10-18 10:47  
Літо 84 / Summer of 84 (2018) mini 1080p H.265 Eng | Sub Ukr/Eng

Літо 84 / Summer of 84 (2018) mini 1080p H.265 Eng | Sub Ukr/Eng


Жанр: жахи, трилер, драма, детектив
Країна: Канада, США



Кінокомпанія: Brightlight Pictures, Gunpowder & Sky
Режисер: Франсуа Сімар, Анук Вісселль, Йоанн-Карл Вісселль
Актори: Ґрем Верчір, Джуда Льюїс, Тіера Сковбай

Сюжет:
Хлопці проводять спекотне літо 1984 року за незвичайним заняттям: вони вираховують серійного вбивцю, що тероризує тихе містечко. Всі докази ведуть до сусідського будинку, де живе нічим непримітний офіцер поліції...


Тривалість: 01:45:36
Якість:
Відео:
кодек: H.265 (HEVC)
розмір кадру: 1920 х 804
бітрейт: 3 682 кб/с
бітова глибина: 10 біт
Увага! Перед завантаженням переконайтесь, що ваш пристрій відтворення (та/або ПЗ) підтримує H.265 (HEVC)

Аудіо:
мова: англійська
переклад: оригінал
кодек: 5.1
бітрейт: 384 кб/с

Субтитри # 1:
мова: українська (Full)
тип: програмні (м'які)
формат: *.srt
переклад: любительський: JoRi, GT [SubAutumn], коригування - igor911

Субтитри # 2:
мова: англійська (Full)
тип: програмні (м'які)
формат: *.srt


Info
Код:
General
Unique ID                                : 96138076489917148833018024015792212119 (0x48538520BC977EF3E1615C2F709C8897)
Complete name                            : F:\Video\Summer of 84 (2018) 1080p H.265 [ENG].
Format                                   :
Format version                           : Version 4 / Version 2
File size                                : 3.00 GiB
Duration                                 : 1 h 45 min
Overall bit rate                         : 4 068 kb/s
Movie name                               : Summer of 84 (2018)
Released date                            : 2018
Encoded date                             : UTC 2018-10-16 12:02:27
Writing application                      : v20.0.0 ('I Am The Sun') 32-bit
Writing library                          : libebml v1.3.5 + v1.4.8
Cover                                    : Yes
Comment                                  : https://www.imdb.com/title/tt5774450/
Attachments                              : cover.jpg
DIRECTOR                                 : Франсуа Сімар, Анук Вісселль, Йоанн-Карл Вісселль
GENRE                                    : жахи, трилер, драма, детектив
SYNOPSIS                                 : Хлопці проводять спекотне літо 1984 року за незвичайним заняттям: вони вираховують серійного вбивцю, що тероризує тихе містечко. Всі докази ведуть до сусідського будинку, де живе нічим непримітний офіцер поліції...
Url                                      : https://toloka.to/t95046

Video
ID                                       : 1
Format                                   : HEVC
Format/Info                              : High Efficiency Video Coding
Format profile                           : Main [email protected]@Main
Codec ID                                 : V_MPEGH/ISO/HEVC
Duration                                 : 1 h 45 min
Bit rate                                 : 3 682 kb/s
Width                                    : 1 920 pixels
Height                                   : 804 pixels
Display aspect ratio                     : 2.40:1
Frame rate mode                          : Constant
Frame rate                               : 23.976 (24000/1001) FPS
Color space                              : YUV
Chroma subsampling                       : 4:2:0
Bit depth                                : 10 bits
Bits/(Pixel*Frame)                       : 0.099
Stream size                              : 2.72 GiB (91%)
Writing library                          : x265 2.8+70-33a782b23f2c:[Windows][GCC 8.2.0][64 bit] 10bit
Encoding settings                        : cpuid=1111039 / frame-threads=3 / numa-pools=8 / wpp / no-pmode / no-pme / no-psnr / no-ssim / log-level=2 / input-csp=1 / input-res=1920x804 / interlace=0 / total-frames=151920 / level-idc=0 / high-tier=1 / uhd-bd=0 / ref=4 / no-allow-non-conformance / no-repeat-headers / annexb / no-aud / no-hrd / info / hash=0 / no-temporal-layers / open-gop / min-keyint=23 / keyint=250 / gop-lookahead=0 / bframes=4 / b-adapt=2 / b-pyramid / bframe-bias=0 / rc-lookahead=25 / lookahead-slices=4 / scenecut=40 / radl=0 / no-intra-refresh / ctu=64 / min-cu-size=8 / rect / no-amp / max-tu-size=32 / tu-inter-depth=1 / tu-intra-depth=1 / limit-tu=0 / rdoq-level=2 / dynamic-rd=0.00 / no-ssim-rd / signhide / no-tskip / nr-intra=0 / nr-inter=0 / no-constrained-intra / strong-intra-smoothing / max-merge=3 / limit-refs=3 / limit-modes / me=3 / subme=3 / merange=57 / temporal-mvp / weightp / no-weightb / no-analyze-src-pics / deblock=0:0 / sao / no-sao-non-deblock / rd=4 / no-early-skip / rskip / no-fast-intra / no-tskip-fast / no-cu-lossless / no-b-intra / no-splitrd-skip / rdpenalty=0 / psy-rd=2.00 / psy-rdoq=1.00 / no-rd-refine / no-lossless / cbqpoffs=0 / crqpoffs=0 / rc=abr / bitrate=3681 / qcomp=0.60 / qpstep=4 / stats-write=0 / stats-read=2 / cplxblur=20.0 / qblur=0.5 / ipratio=1.40 / pbratio=1.30 / aq-mode=3 / aq-strength=1.00 / cutree / zone-count=0 / no-strict-cbr / qg-size=32 / no-rc-grain / qpmax=69 / qpmin=0 / no-const-vbv / sar=0 / overscan=0 / videoformat=5 / range=0 / colorprim=2 / transfer=2 / colormatrix=2 / chromaloc=0 / display-window=0 / max-cll=0,0 / min-luma=0 / max-luma=1023 / log2-max-poc-lsb=8 / vui-timing-info / vui-hrd-info / slices=1 / no-opt-qp-pps / no-opt-ref-list-length-pps / multi-pass-opt-rps / scenecut-bias=0.05 / no-opt-cu-delta-qp / aq-motion / no-hdr / no-hdr-opt / no-dhdr10-opt / no-idr-recovery-sei / analysis-reuse-level=5 / scale-factor=0 / refine-intra=0 / refine-inter=0 / refine-mv=0 / no-limit-sao / ctu-info=0 / no-lowpass-dct / refine-mv-type=0 / copy-pic=1 / max-ausize-factor=1.0 / no-dynamic-refine / no-single-sei
Default                                  : Yes
Forced                                   : No

Audio
ID                                       : 2
Format                                   : AC-3
Format/Info                              : Audio Coding 3
Codec ID                                 : A_AC3
Duration                                 : 1 h 45 min
Bit rate mode                            : Constant
Bit rate                                 : 384 kb/s
Channel(s)                               : 6 channels
Channel positions                        : Front: L C R, Side: L R, LFE
Sampling rate                            : 48.0 kHz
Frame rate                               : 31.250 FPS (1536 SPF)
Bit depth                                : 16 bits
Compression mode                         : Lossy
Delay relative to video                  : 1 s 0 ms
Stream size                              : 290 MiB (9%)
Title                                    : Original, 5.1 384 Kbps
Language                                 : English
Service kind                             : Complete Main
Default                                  : Yes
Forced                                   : No

Text #1
ID                                       : 3
Format                                   : UTF-8
Codec ID                                 : S_TEXT/UTF8
Codec ID/Info                            : UTF-8 Plain Text
Duration                                 : 1 h 41 min
Bit rate                                 : 98 b/s
Count of elements                        : 1608
Stream size                              : 73.1 KiB (0%)
Title                                    : Ukr full [JoRi, GT - SubAutumn]
Language                                 : Ukrainian
Default                                  : Yes
Forced                                   : Yes

Text #2
ID                                       : 4
Format                                   : UTF-8
Codec ID                                 : S_TEXT/UTF8
Codec ID/Info                            : UTF-8 Plain Text
Duration                                 : 1 h 40 min
Bit rate                                 : 62 b/s
Count of elements                        : 1621
Stream size                              : 45.7 KiB (0%)
Title                                    : Eng Full
Language                                 : English
Default                                  : No
Forced                                   : No

Menu
00:00:00.000                             : en:1
00:12:31.000                             : en:2
00:24:23.000                             : en:3
00:37:18.000                             : en:4
00:45:56.000                             : en:5
00:57:26.000                             : en:6
01:06:18.000                             : en:7
01:17:51.000                             : en:8
01:26:43.000                             : en:9
01:41:04.000                             : en:10
Скріншоти





Джерело:
Особиста оцінка: 0 - не дивився


Золотий реліз (завантажене не впливає на рейтинг)
 Трекер:    Зареєстрований   

Завантажити / скачати фільм українською



відео для новачків



 Зареєстрований:   2018-10-18 10:47
 Розмір:   3 GB 
 Оцінка фільму:   9.9/10 (Голосів: 8)
   
Інші релізи
   Літо 84 / Summer of 84 (2018) 1080p Eng | Sub Ukr/Eng igor911  4 / 0   3.68 GB   2018-09-13 19:09 
alienware 
Свій


З нами з: 20.12.09
Востаннє: 21.11.20
Повідомлень: 75

2018-10-18 19:08  
Чудовий фільм має бути! Але зачекаю на українське озвучення. До речі, не підкажете коли можна очікувати дубляж?
Anonymous 







2018-11-05 21:49  
alienware
Чомусь мені здається, що чекати на нього не варто)

11994455 
Попереджень: 2
Попереджень: 2 


З нами з: 07.04.14
Востаннє: 26.11.20
Повідомлень: 650

2019-02-02 14:42  
Була у Кінга розповідь Труп там теж дітки шукали пригоди на свою 5 точку. Навідмінну від Воно ніякої містики. Як і в Воно дія відбувається в 50х роках. І Воно і Труп екранізовані в 80х роках. Кінг показав в книгах культурно-вихованих американських дітей 50х...(ага надійтесь наївні). В 80ті таке не проканає таких діток не знайдете В рімейці Воно дію перенесли в 80ті... Так що рахуйте це рімейком Залишайся зі мною 1986 з молодими Кюсаком і Сазерлендом які там були проїздом https://toloka.to/t46571 https://toloka.to/t76203#1066483
Дуже вільним рімейком...

11994455 
Попереджень: 2
Попереджень: 2 


З нами з: 07.04.14
Востаннє: 26.11.20
Повідомлень: 650

2019-02-03 14:05  
Здається маловатий бітрейт...
antik_2008 
Релізер і модератор відео


З нами з: 20.10.08
Востаннє: 27.11.20
Повідомлень: 4361

2019-02-03 15:28  
11994455 написано:
Здається маловатий бітрейт...


Розмір: 3 GB
бітрейт: 3 682 кб/с
Тривалість: 01:45:36

Може бути Happy

11994455 
Попереджень: 2
Попереджень: 2 


З нами з: 07.04.14
Востаннє: 26.11.20
Повідомлень: 650

2019-02-04 14:55  
Та і тут теж https://toloka.to/t95046#1066479
leicheman 
Відео Гуртом - фільмокрай
Відео Гуртом - фільмокрай


З нами з: 03.07.14
Востаннє: 26.11.20
Повідомлень: 5688

2019-02-04 15:21  
11994455 написано:
Та і тут теж

То веб -дл, що ви від нього хотіли? Бітрейд , як у блюра?

11994455 
Попереджень: 2
Попереджень: 2 


З нами з: 07.04.14
Востаннє: 26.11.20
Повідомлень: 650

2019-02-04 19:09  
Добре там проблем нема - а тут ?
leicheman 
Відео Гуртом - фільмокрай
Відео Гуртом - фільмокрай


З нами з: 03.07.14
Востаннє: 26.11.20
Повідомлень: 5688

2019-02-19 23:31  
11994455 написано:
а тут ?

І тут.
ознайомтеся зі значенням відеоріп та кодеком h.265

hatak 
Поважний учасник


З нами з: 30.04.15
Востаннє: 27.11.20
Повідомлень: 178

2019-04-10 22:41  
У мене враження від фільму поділяються на дві частини: до кульмінації сюжету та після неї. Причина в тому, що в цих частин якийсь ніби різний настрій. Досить важко описати відчуття від перегляду щоб не спойлерити сюжет. Однозначно, фільм тримає у напрузі під час перегляду, було постійне очікування чогось особливого, що ось-ось щось станеться... Спочатку фільм схожий на якусь легку історію про підлітків для підлітків, де має місце дух домашньої пригоди та дружби між дітьми, які проводять разом літо, такому сприйняттю допомагає ще й веселий музичний супровід подій. Але потім все стає набагато серйозніше і настрій змінюється. Співчуваєш підліткам, які потрапили в непросту ситуацію та хочеться якомога швидше дізнатись хто вбивця, як у хорошому добре закрученому детективі. А ось кінцівка розчарувала. Не знаю чому, але фінал міг би бути і цікавішим, хоча варто визнати, що він і так досить оригінальний, як для такого фільму.
Ваш часовий пояс: GMT + 2 Години

Нова тема   Відповісти