Час / In Time (2011) 1080p H.265 Ukr/Eng | Sub Ukr/Eng

Нові коментарі

Нова тема   Відповісти
Автор Повідомлення
Anonymous 







2018-10-18 10:11  
Час / In Time (2011) 1080p H.265 Ukr/Eng | Sub Ukr/Eng

Час / In Time (2011) 1080p H.265 Ukr/Eng | Sub Ukr/Eng


Жанр: екшн, фантастика, трилер, кримінальний
Країна: США



Кінокомпанія: 20th Century Fox, Regency Enterprises, Strike Entertainment
Режисер: Ендрю Ніккол
Актори: Джастін Тімберлейк, Аманда Сейфрід, Кілліан Мерфі, Алекс Петтіфер, Шайло Уствальд, Джонні Галекі, Колін МакГерк, Олівія Вайлд, Вілл Харріс, Майкл Вільям Фріман та інші.

Сюжет:
Ласкаво просимо у світ, де час став єдиною і найтвердішою валютою, де люди генетично запрограмовані так, що в 25 років перестають старіти. Щоправда, подальші роки коштують грошей. Багаті "заробляють" десятиріччя в лічені дні, що робить їх практично безсмертними, тоді як решта вимушені випрошувати, позичати або красти години, щоб прожити залишок дня.


Тривалість: 01:49:16
Якість:
Відео:
кодек: H.265 (HEVC)
розмір кадру: 1920 х 816
бітрейт: 5 582 кб/с
бітова глибина: 10 біт
Увага! Перед завантаженням переконайтесь, що ваш пристрій відтворення (та/або ПЗ) підтримує H.265 (HEVC)

Аудіо # 1:
мова: українська
переклад: професійний дубльований
кодек: 5.1
бітрейт: 448 кб/с

Аудіо # 2:
мова: англійська
переклад: оригінал
кодек: 5.1
бітрейт: 448 кб/с

Субтитри # 1-2:
мова: українська (Forced, Full)
тип: програмні (м'які)
формат: *.srt

Субтитри # 3-4:
мова: англійська (Full, SDH)
тип: програмні (м'які)
формат: *.srt


Info
Код:
General
Unique ID                                : 266577015057967064199745983786361737159 (0xC88CDD968E4EE0E23F43C77A7806CFC7)
Complete name                            : F:\Video\In Time (2011) 1080p H.265 [UKR_ENG].
Format                                   :
Format version                           : Version 4 / Version 2
File size                                : 4.95 GiB
Duration                                 : 1 h 49 min
Overall bit rate                         : 6 482 kb/s
Movie name                               : In Time (2011)
Encoded date                             : UTC 2018-10-14 19:23:45
Writing application                      : v20.0.0 ('I Am The Sun') 32-bit
Writing library                          : libebml v1.3.5 + v1.4.8
Cover                                    : Yes
Attachments                              : cover.jpg

Video
ID                                       : 1
Format                                   : HEVC
Format/Info                              : High Efficiency Video Coding
Format profile                           : Main [email protected]@High
Codec ID                                 : V_MPEGH/ISO/HEVC
Duration                                 : 1 h 49 min
Bit rate                                 : 5 582 kb/s
Width                                    : 1 920 pixels
Height                                   : 816 pixels
Display aspect ratio                     : 2.35:1
Frame rate mode                          : Constant
Frame rate                               : 23.976 (24000/1001) FPS
Color space                              : YUV
Chroma subsampling                       : 4:2:0
Bit depth                                : 10 bits
Bits/(Pixel*Frame)                       : 0.149
Stream size                              : 4.26 GiB (86%)
Writing library                          : x265 2.8+23-656b5b442f0b:[Windows][GCC 7.3.0][64 bit] 10bit
Encoding settings                        : cpuid=1176575 / frame-threads=4 / numa-pools=16 / wpp / no-pmode / no-pme / no-psnr / no-ssim / log-level=2 / input-csp=1 / input-res=1920x816 / interlace=0 / total-frames=0 / level-idc=51 / high-tier=1 / uhd-bd=0 / ref=5 / no-allow-non-conformance / no-repeat-headers / annexb / no-aud / no-hrd / info / hash=0 / no-temporal-layers / open-gop / min-keyint=23 / keyint=250 / gop-lookahead=0 / bframes=8 / b-adapt=2 / no-b-pyramid / bframe-bias=0 / rc-lookahead=60 / lookahead-slices=4 / scenecut=40 / radl=0 / no-intra-refresh / ctu=64 / min-cu-size=8 / no-rect / no-amp / max-tu-size=32 / tu-inter-depth=2 / tu-intra-depth=2 / limit-tu=4 / rdoq-level=2 / dynamic-rd=0.00 / no-ssim-rd / signhide / no-tskip / nr-intra=0 / nr-inter=0 / no-constrained-intra / strong-intra-smoothing / max-merge=3 / limit-refs=2 / limit-modes / me=3 / subme=7 / merange=64 / temporal-mvp / weightp / weightb / no-analyze-src-pics / deblock=-3:-3 / no-sao / no-sao-non-deblock / rd=6 / no-early-skip / rskip / no-fast-intra / no-tskip-fast / no-cu-lossless / b-intra / no-splitrd-skip / rdpenalty=0 / psy-rd=2.00 / psy-rdoq=1.00 / no-rd-refine / no-lossless / cbqpoffs=0 / crqpoffs=0 / rc=crf / crf=18.0 / qcomp=0.70 / qpstep=4 / stats-write=0 / stats-read=0 / vbv-maxrate=160000 / vbv-bufsize=160000 / vbv-init=0.9 / crf-max=0.0 / crf-min=0.0 / ipratio=1.40 / pbratio=1.30 / aq-mode=1 / aq-strength=0.30 / no-cutree / zone-count=0 / no-strict-cbr / qg-size=32 / no-rc-grain / qpmax=69 / qpmin=0 / no-const-vbv / sar=0 / overscan=0 / videoformat=5 / range=0 / colorprim=2 / transfer=2 / colormatrix=1 / chromaloc=0 / display-window=0 / max-cll=0,0 / min-luma=0 / max-luma=1023 / log2-max-poc-lsb=8 / vui-timing-info / vui-hrd-info / slices=1 / no-opt-qp-pps / no-opt-ref-list-length-pps / no-multi-pass-opt-rps / scenecut-bias=0.05 / no-opt-cu-delta-qp / no-aq-motion / no-hdr / no-hdr-opt / no-dhdr10-opt / no-idr-recovery-sei / analysis-reuse-level=5 / scale-factor=0 / refine-intra=0 / refine-inter=0 / refine-mv=0 / no-limit-sao / ctu-info=0 / no-lowpass-dct / refine-mv-type=0 / copy-pic=1 / max-ausize-factor=1.0 / no-dynamic-refine / no-single-sei
Default                                  : Yes
Forced                                   : Yes
Color range                              : Limited
Matrix coefficients                      : BT.709

Audio #1
ID                                       : 2
Format                                   : AC-3
Format/Info                              : Audio Coding 3
Codec ID                                 : A_AC3
Duration                                 : 1 h 49 min
Bit rate mode                            : Constant
Bit rate                                 : 448 kb/s
Channel(s)                               : 6 channels
Channel positions                        : Front: L C R, Side: L R, LFE
Sampling rate                            : 48.0 kHz
Frame rate                               : 31.250 FPS (1536 SPF)
Bit depth                                : 16 bits
Compression mode                         : Lossy
Stream size                              : 350 MiB (7%)
Title                                    : UKR @ 448 Kbps | 5.1 | DUB, Blu-ray CEE
Language                                 : Ukrainian
Service kind                             : Complete Main
Default                                  : Yes
Forced                                   : Yes

Audio #2
ID                                       : 3
Format                                   : AC-3
Format/Info                              : Audio Coding 3
Codec ID                                 : A_AC3
Duration                                 : 1 h 49 min
Bit rate mode                            : Constant
Bit rate                                 : 448 kb/s
Channel(s)                               : 6 channels
Channel positions                        : Front: L C R, Side: L R, LFE
Sampling rate                            : 48.0 kHz
Frame rate                               : 31.250 FPS (1536 SPF)
Bit depth                                : 16 bits
Compression mode                         : Lossy
Stream size                              : 350 MiB (7%)
Title                                    : ENG @ 448 Kbps | 5.1
Language                                 : English
Service kind                             : Complete Main
Default                                  : No
Forced                                   : No

Text #1
ID                                       : 4
Format                                   : UTF-8
Codec ID                                 : S_TEXT/UTF8
Codec ID/Info                            : UTF-8 Plain Text
Duration                                 : 1 h 27 min
Bit rate                                 : 1 b/s
Count of elements                        : 18
Stream size                              : 756 Bytes (0%)
Title                                    : Forced
Language                                 : Ukrainian
Default                                  : Yes
Forced                                   : Yes

Text #2
ID                                       : 5
Format                                   : UTF-8
Codec ID                                 : S_TEXT/UTF8
Codec ID/Info                            : UTF-8 Plain Text
Duration                                 : 1 h 41 min
Bit rate                                 : 61 b/s
Count of elements                        : 1066
Stream size                              : 45.8 KiB (0%)
Title                                    : Full
Language                                 : Ukrainian
Default                                  : No
Forced                                   : No

Text #3
ID                                       : 6
Format                                   : UTF-8
Codec ID                                 : S_TEXT/UTF8
Codec ID/Info                            : UTF-8 Plain Text
Duration                                 : 1 h 41 min
Bit rate                                 : 41 b/s
Count of elements                        : 1119
Stream size                              : 30.7 KiB (0%)
Title                                    : Full
Language                                 : English
Default                                  : No
Forced                                   : No

Text #4
ID                                       : 7
Format                                   : UTF-8
Codec ID                                 : S_TEXT/UTF8
Codec ID/Info                            : UTF-8 Plain Text
Duration                                 : 1 h 41 min
Bit rate                                 : 43 b/s
Count of elements                        : 1213
Stream size                              : 32.4 KiB (0%)
Title                                    : SDH
Language                                 : English
Default                                  : No
Forced                                   : No

Menu
00:00:00.000                             : en:Chapter 1
00:05:54.270                             : en:Chapter 2
00:10:50.733                             : en:Chapter 3
00:18:58.095                             : en:Chapter 4
00:22:16.376                             : en:Chapter 5
00:25:30.445                             : en:Chapter 6
00:29:51.915                             : en:Chapter 7
00:34:41.746                             : en:Chapter 8
00:38:24.885                             : en:Chapter 9
00:41:23.898                             : en:Chapter 10
00:44:44.723                             : en:Chapter 11
00:48:08.302                             : en:Chapter 12
00:51:32.547                             : en:Chapter 13
00:53:56.149                             : en:Chapter 14
00:56:16.873                             : en:Chapter 15
01:00:25.371                             : en:Chapter 16
01:05:41.145                             : en:Chapter 17
01:08:57.800                             : en:Chapter 18
01:11:19.483                             : en:Chapter 19
01:14:05.107                             : en:Chapter 20
01:16:48.979                             : en:Chapter 21
01:20:20.982                             : en:Chapter 22
01:22:44.292                             : en:Chapter 23
01:27:17.106                             : en:Chapter 24
01:29:22.398                             : en:Chapter 25
01:33:26.017                             : en:Chapter 26
01:37:16.956                             : en:Chapter 27
01:42:56.461                             : en:Chapter 28
Скріншоти




Джерело:
Особиста оцінка: 10 - без зайвих вагань рекомендую всім!


 Трекер:    Зареєстрований   

Завантажити / скачати фільм українською



відео для новачків



 Зареєстрований:   2018-10-18 10:11
 Розмір:   4.95 GB 
 Оцінка фільму:   9.7/10 (Голосів: 26)
   
Інші релізи
   Час / In Time (2011) patriot2305  2 / 0   1.45 GB   2015-05-13 08:04 
   Час / In Time (2011) AVC Ukr/Eng | Sub Ukr/Eng Yarik M  8 / 0   1.92 GB   2015-05-12 07:09 
   Час / In Time (2011) 1080p Ukr/Eng | Sub Ukr/Eng patriot2305  4 / 0   11.1 GB   2012-02-25 22:33 
   Час / In Time (2011) 720p Ukr/Eng | Sub Ukr/Eng Dim-ON  4 / 0   5.37 GB   2012-02-22 19:18 
   Час / In Time (2011) Ukr/Eng BASTERD-94  1 / 0   2.18 GB   2012-02-16 20:27 
VINRARUS 
Поважний учасник


З нами з: 16.11.11
Востаннє: 16.11.19
Повідомлень: 207

2018-10-19 16:51  
Неймовірний фільм. Розумним людям рекомендую!
Показує людську жадність у всій красі.

waldi-hurtom 
VIP


З нами з: 07.10.12
Востаннє: 16.11.19
Повідомлень: 1042

2018-10-24 21:52  
Ні про що ні про як. Але розумієш це наприкінці. 5 з 10
Ваш часовий пояс: GMT + 2 Години

Нова тема   Відповісти