Хлопці зі стволами / War Dogs (2016) 1080p H.265 Ukr/Eng | Sub Eng

Нові коментарі

Нова тема   Відповісти
Автор Повідомлення
-Star-Lord- 
VIP


З нами з: 09.08.18
Востаннє: 23.04.19
Повідомлень: 737

2018-10-18 10:54  
Хлопці зі стволами / War Dogs (2016) 1080p H.265 Ukr/Eng | Sub Eng



Альтернативний постер

Хлопці зі стволами / War Dogs (2016) 1080p H.265 Ukr/Eng | Sub Eng


Жанр: драма, комедія
Країна: США



Кінокомпанія: 22 & Indiana Pictures, Green Hat Films, The Mark Gordon Company
Режисер: Тодд Філліпс
Актори: Майлз Теллер, Бредлі Купер, Ана де Армас, Джона Хілл, Ден Білзерян, Шон Тоуб, Беррі Лівінгстон

Сюжет:
Нікому з тих, хто особисто знає Девіда і Ефрейма і в голову б не прийшло те, чим вони вирішили зайнятися. Ці два несерйозних на перший погляд хлопця з Маямі зуміли укласти вигідну угоду з Пентагоном на постачання зброї, легко обійшовши всіх лідерів галузі. Окрилені успіхом друзі відправляються в Афганістан, де на власні очі побачать у ділі ту саму зброю, яку вони продають.


Тривалість: 01:54:12
Якість: 1080p H.265

Відео:
кодек: H.265 (HEVC)
розмір кадру: 1920 х 800
бітрейт: 5927 кб/с
бітова глибина: 10 біт
Увага! Перед завантаженням переконайтесь, що ваш пристрій відтворення (та/або ПЗ) підтримує H.265 (HEVC)

Аудіо # 1:
мова: українська
переклад: професійний дубльований | студія Postmodern
кодек: 2.0
бітрейт: 192 кб/с
Інформація про дубляж
Переклад: Переклад: Сергій Ковальчук
Режисер дубляжу: Павло Скороходько
Звукорежисер: Денис Подляський
Звукорежисер перезапису: Дмитро Мялковський
Ролі дублювали: Андрій Федінчик, Назар Задніпровський, Наталя Денисенко, Андрій Твердак, Валерій Легін, Євген Малуха та інші.
Фільм дубльовано студією Postmodern.
Аудіо # 2:
мова: англійська
переклад: оригінал
кодек: 5.1
бітрейт: 448 кб/с

Субтитри # 1:
мова: українська (Forced)
тип: програмні (м'які)
формат: *.srt by Electroz

Субтитри # 2-3:
мова: англійська (Full, SDH)
тип: програмні (м'які)
формат: *.srt


Info
Код:
General
Unique ID                                : 88574702483937069578488552781530299660 (0x42A2DDFFB2D53F4541FB4313070C7D0C)
Complete name                            : F:\Video\War Dogs (2016) 1080p H.265 [UKR_ENG].
Format                                   :
Format version                           : Version 4 / Version 2
File size                                : 5.24 GiB
Duration                                 : 1 h 54 min
Overall bit rate                         : 6 569 kb/s
Movie name                               : War Dogs (2016)
Encoded date                             : UTC 2018-10-16 11:06:01
Writing application                      : v20.0.0 ('I Am The Sun') 32-bit
Writing library                          : libebml v1.3.5 + v1.4.8
Cover                                    : Yes
Attachments                              : cover.jpg

Video
ID                                       : 1
Format                                   : HEVC
Format/Info                              : High Efficiency Video Coding
Format profile                           : Main [email protected]@High
Codec ID                                 : V_MPEGH/ISO/HEVC
Duration                                 : 1 h 54 min
Bit rate                                 : 5 927 kb/s
Width                                    : 1 920 pixels
Height                                   : 800 pixels
Display aspect ratio                     : 2.40:1
Frame rate mode                          : Constant
Frame rate                               : 23.976 (24000/1001) FPS
Color space                              : YUV
Chroma subsampling                       : 4:2:0 (Type 0)
Bit depth                                : 10 bits
Bits/(Pixel*Frame)                       : 0.161
Stream size                              : 4.73 GiB (90%)
Writing library                          : x265 2.9+1-169e76b6bbcc:[Windows][GCC 8.2.0][64 bit] 10bit
Encoding settings                        : cpuid=1049071 / frame-threads=4 / numa-pools=12,12 / wpp / no-pmode / no-pme / no-psnr / no-ssim / log-level=2 / input-csp=1 / input-res=1920x800 / interlace=0 / total-frames=0 / level-idc=51 / high-tier=1 / uhd-bd=0 / ref=5 / no-allow-non-conformance / no-repeat-headers / annexb / no-aud / no-hrd / info / hash=0 / no-temporal-layers / open-gop / min-keyint=23 / keyint=240 / gop-lookahead=0 / bframes=8 / b-adapt=2 / b-pyramid / bframe-bias=0 / rc-lookahead=40 / lookahead-slices=5 / scenecut=40 / radl=0 / no-intra-refresh / ctu=64 / min-cu-size=8 / rect / no-amp / max-tu-size=32 / tu-inter-depth=3 / tu-intra-depth=3 / limit-tu=4 / rdoq-level=2 / dynamic-rd=0.00 / no-ssim-rd / signhide / no-tskip / nr-intra=0 / nr-inter=0 / no-constrained-intra / no-strong-intra-smoothing / max-merge=3 / limit-refs=3 / limit-modes / me=3 / subme=7 / merange=57 / temporal-mvp / weightp / weightb / no-analyze-src-pics / deblock=-3:-3 / no-sao / no-sao-non-deblock / rd=4 / no-early-skip / rskip / no-fast-intra / no-tskip-fast / no-cu-lossless / no-b-intra / no-splitrd-skip / rdpenalty=0 / psy-rd=2.00 / psy-rdoq=1.00 / no-rd-refine / no-lossless / cbqpoffs=0 / crqpoffs=0 / rc=crf / crf=18.0 / qcomp=0.60 / qpstep=4 / stats-write=0 / stats-read=0 / vbv-maxrate=160000 / vbv-bufsize=160000 / vbv-init=0.9 / crf-max=0.0 / crf-min=0.0 / ipratio=1.40 / pbratio=1.30 / aq-mode=1 / aq-strength=1.00 / cutree / zone-count=1 / zones: / start-frame=155825 / end-frame=164305 / qp=35 / no-strict-cbr / qg-size=32 / no-rc-grain / qpmax=69 / qpmin=0 / no-const-vbv / sar=0 / overscan=0 / videoformat=5 / range=0 / colorprim=2 / transfer=2 / colormatrix=1 / chromaloc=1 / chromaloc-top=0 / chromaloc-bottom=0 / display-window=0 / max-cll=0,0 / min-luma=0 / max-luma=1023 / log2-max-poc-lsb=8 / vui-timing-info / vui-hrd-info / slices=1 / no-opt-qp-pps / no-opt-ref-list-length-pps / no-multi-pass-opt-rps / scenecut-bias=0.05 / no-opt-cu-delta-qp / no-aq-motion / no-hdr / no-hdr-opt / no-dhdr10-opt / no-idr-recovery-sei / analysis-reuse-level=5 / scale-factor=0 / refine-intra=0 / refine-inter=0 / refine-mv=0 / no-limit-sao / ctu-info=0 / no-lowpass-dct / refine-mv-type=0 / copy-pic=1 / max-ausize-factor=1.0 / no-dynamic-refine / no-single-sei
Language                                 : English
Default                                  : Yes
Forced                                   : Yes
Color range                              : Limited
Matrix coefficients                      : BT.709

Audio #1
ID                                       : 2
Format                                   : AC-3
Format/Info                              : Audio Coding 3
Codec ID                                 : A_AC3
Duration                                 : 1 h 54 min
Bit rate mode                            : Constant
Bit rate                                 : 192 kb/s
Channel(s)                               : 2 channels
Channel positions                        : Front: L R
Sampling rate                            : 48.0 kHz
Frame rate                               : 31.250 FPS (1536 SPF)
Bit depth                                : 16 bits
Compression mode                         : Lossy
Stream size                              : 157 MiB (3%)
Title                                    : 2.0 @ 192 kbps - DUB, Megogo
Language                                 : Ukrainian
Service kind                             : Complete Main
Default                                  : Yes
Forced                                   : Yes

Audio #2
ID                                       : 3
Format                                   : AC-3
Format/Info                              : Audio Coding 3
Codec ID                                 : A_AC3
Duration                                 : 1 h 54 min
Bit rate mode                            : Constant
Bit rate                                 : 448 kb/s
Channel(s)                               : 6 channels
Channel positions                        : Front: L C R, Side: L R, LFE
Sampling rate                            : 48.0 kHz
Frame rate                               : 31.250 FPS (1536 SPF)
Bit depth                                : 16 bits
Compression mode                         : Lossy
Stream size                              : 366 MiB (7%)
Title                                    : 5.1 @ 448 kbps - Original
Language                                 : English
Service kind                             : Complete Main
Default                                  : No
Forced                                   : No

Text #1
ID                                       : 4
Format                                   : UTF-8
Codec ID                                 : S_TEXT/UTF8
Codec ID/Info                            : UTF-8 Plain Text
Duration                                 : 1 h 35 min
Bit rate                                 : 1 b/s
Count of elements                        : 25
Stream size                              : 1 018 Bytes (0%)
Title                                    : Forced
Language                                 : Ukrainian
Default                                  : Yes
Forced                                   : Yes

Text #2
ID                                       : 5
Format                                   : UTF-8
Codec ID                                 : S_TEXT/UTF8
Codec ID/Info                            : UTF-8 Plain Text
Duration                                 : 1 h 47 min
Bit rate                                 : 71 b/s
Count of elements                        : 1773
Stream size                              : 56.2 KiB (0%)
Title                                    : Full
Language                                 : English
Default                                  : No
Forced                                   : No

Text #3
ID                                       : 6
Format                                   : UTF-8
Codec ID                                 : S_TEXT/UTF8
Codec ID/Info                            : UTF-8 Plain Text
Duration                                 : 1 h 47 min
Bit rate                                 : 76 b/s
Count of elements                        : 1921
Stream size                              : 60.3 KiB (0%)
Title                                    : SDH
Language                                 : English
Default                                  : No
Forced                                   : No

Menu
00:00:00.000                             : en:Chapter 01
00:10:13.487                             : en:Chapter 02
00:19:00.848                             : en:Chapter 03
00:30:21.110                             : en:Chapter 04
00:40:02.149                             : en:Chapter 05
00:50:56.178                             : en:Chapter 06
00:59:34.237                             : en:Chapter 07
01:10:59.213                             : en:Chapter 08
01:20:08.720                             : en:Chapter 09
01:32:06.020                             : en:Chapter 10
01:39:36.011                             : en:Chapter 11
01:48:19.117                             : en:Chapter 12
Скріншоти




Джерело:
Особиста оцінка: 10 - без зайвих вагань рекомендую всім!


 Трекер:    Зареєстрований   

Завантажити / скачати фільм українською



відео для новачків



 Зареєстрований:   2018-10-18 10:54
 Розмір:   5.24 GB 
 Оцінка фільму:   9.3/10 (Голосів: 3)
   
Інші релізи
Ваш часовий пояс: GMT + 2 Години

Нова тема   Відповісти