1+1 (Недоторканні) / Intouchables (2011) 1080p H.265 3xUkr/Fre | Sub 2xUkr/Fre

Нові коментарі

Нова тема   Відповісти
Автор Повідомлення
Anonymous 







2018-10-18 09:34  
1+1 / Недоторканні / Intouchables (2011) 1080p H.265 3xUkr/Fre | Sub 2xUkr/Fre

1+1 (Недоторканні) / Intouchables (2011) 1080p H.265 3xUkr/Fre | Sub 2xUkr/Fre


Жанр: комедія, драма
Країна: Франція



Кінокомпанія: Quad Productions, Chaocorp, Gaumont
Режисер: Олів'є Накаш, Ерік Толедано
Актори: Франсуа Клюзе, Омар Сі, Анн Ле Ні, Одрі Флеро, Клотільд Молле, Альба Гайя Крагеде Беллуджі, Сіріл Менді та інші

Сюжет:
Ставши інвалідом в результаті нещасного випадку, багатій Філіп наймає в помічники людину, що менше всього підходить для цієї роботи - молодого мешканця нетрів Дрісса, який щойно звільнився з в'язниці. Незважаючи на те, що Філіп прикутий до інвалідного крісла, Дріссу вдається привнести в розмірене існування багатія дух пригод та жагу життя.


Тривалість: 01:52:02
Якість:
Відео:
кодек: H.265 (HEVC)
розмір кадру: 1920 х 1040
бітрейт: 10.2 Mb/s
бітова глибина: 10 біт
Увага! Перед завантаженням переконайтесь, що ваш пристрій відтворення (та/або ПЗ) підтримує H.265 (HEVC)

Аудіо # 1:
мова: українська
переклад: професійний дубльований
кодек: 2.0
бітрейт: 192 кб/с

Аудіо # 2:
мова: українська
переклад: багатоголосий закадровий
кодек: 5.1
бітрейт: 448 кб/с

Аудіо # 3:
мова: українська
переклад: багатоголосий закадровий | Hurtom
кодек: 5.1
бітрейт: 1 509 кб/с

Аудіо # 4:
мова: французька
переклад: оригінал
кодек: 5.1
бітрейт: 1 509 кб/с

Субтитри # 1-2:
мова: українська (від AlanAlan, Gashik і Сеник Ольга), українська (від SergoMozaic)
тип: програмні (м'які)
формат: *.srt

Субтитри # 3:
мова: французька (Full)
тип: програмні (м'які)
формат: *.srt


Info
Код:
General
Unique ID                                : 256007346994584155636904387064957948313 (0xC09938B7E4DFA1622236AAD4B196D199)
Complete name                            : F:\Video\Intouchables (2011) 1080p H.265 [3xUKR_FRE].
Format                                   :
Format version                           : Version 4 / Version 2
File size                                : 10.8 GiB
Duration                                 : 1 h 52 min
Overall bit rate                         : 13.8 Mb/s
Movie name                               : Intouchables (2011)
Encoded date                             : UTC 2018-10-17 17:59:02
Writing application                      : v20.0.0 ('I Am The Sun') 32-bit
Writing library                          : libebml v1.3.5 + v1.4.8
Cover                                    : Yes
Attachments                              : Cover.jpg

Video
ID                                       : 1
Format                                   : HEVC
Format/Info                              : High Efficiency Video Coding
Format profile                           : Main [email protected]@High
Codec ID                                 : V_MPEGH/ISO/HEVC
Duration                                 : 1 h 52 min
Bit rate                                 : 10.2 Mb/s
Width                                    : 1 920 pixels
Height                                   : 1 040 pixels
Display aspect ratio                     : 1.85:1
Frame rate mode                          : Constant
Frame rate                               : 24.000 FPS
Color space                              : YUV
Chroma subsampling                       : 4:2:0
Bit depth                                : 10 bits
Bits/(Pixel*Frame)                       : 0.212
Stream size                              : 7.96 GiB (74%)
Writing library                          : x265 2.8+19-bcdc610cf5f0:[Windows][GCC 7.3.0][64 bit] 10bit
Encoding settings                        : cpuid=1049583 / frame-threads=5 / numa-pools=4 / wpp / no-pmode / no-pme / no-psnr / no-ssim / log-level=3 / input-csp=1 / input-res=1920x1040 / interlace=0 / total-frames=0 / level-idc=41 / high-tier=1 / uhd-bd=0 / ref=5 / allow-non-conformance / no-repeat-headers / annexb / no-aud / no-hrd / info / hash=0 / no-temporal-layers / open-gop / min-keyint=24 / keyint=240 / gop-lookahead=0 / bframes=8 / b-adapt=2 / b-pyramid / bframe-bias=0 / rc-lookahead=40 / lookahead-slices=6 / scenecut=60 / radl=0 / no-intra-refresh / ctu=64 / min-cu-size=8 / no-rect / no-amp / max-tu-size=32 / tu-inter-depth=1 / tu-intra-depth=1 / limit-tu=0 / rdoq-level=0 / dynamic-rd=0.00 / no-ssim-rd / signhide / no-tskip / nr-intra=0 / nr-inter=0 / no-constrained-intra / strong-intra-smoothing / max-merge=2 / limit-refs=3 / no-limit-modes / me=3 / subme=7 / merange=57 / temporal-mvp / weightp / no-weightb / no-analyze-src-pics / deblock=-3:-3 / no-sao / no-sao-non-deblock / rd=3 / no-early-skip / rskip / no-fast-intra / no-tskip-fast / no-cu-lossless / no-b-intra / no-splitrd-skip / rdpenalty=0 / psy-rd=2.00 / psy-rdoq=0.00 / no-rd-refine / no-lossless / cbqpoffs=0 / crqpoffs=0 / rc=crf / crf=20.0 / qcomp=0.75 / qpstep=4 / stats-write=0 / stats-read=0 / vbv-maxrate=50000 / vbv-bufsize=50000 / vbv-init=0.9 / crf-max=0.0 / crf-min=0.0 / ipratio=1.40 / pbratio=1.30 / aq-mode=1 / aq-strength=1.00 / cutree / zone-count=0 / no-strict-cbr / qg-size=32 / no-rc-grain / qpmax=69 / qpmin=0 / no-const-vbv / sar=1 / overscan=0 / videoformat=5 / range=0 / colorprim=1 / transfer=1 / colormatrix=1 / chromaloc=0 / display-window=0 / max-cll=0,0 / min-luma=0 / max-luma=1023 / log2-max-poc-lsb=8 / vui-timing-info / vui-hrd-info / slices=1 / no-opt-qp-pps / no-opt-ref-list-length-pps / no-multi-pass-opt-rps / scenecut-bias=0.05 / no-opt-cu-delta-qp / no-aq-motion / no-hdr / no-hdr-opt / no-dhdr10-opt / no-idr-recovery-sei / analysis-reuse-level=5 / scale-factor=0 / refine-intra=0 / refine-inter=0 / refine-mv=0 / no-limit-sao / ctu-info=0 / no-lowpass-dct / refine-mv-type=0 / copy-pic=1 / max-ausize-factor=1.0 / no-dynamic-refine / no-single-sei
Default                                  : Yes
Forced                                   : No
Color range                              : Limited
Color primaries                          : BT.709
Transfer characteristics                 : BT.709
Matrix coefficients                      : BT.709

Audio #1
ID                                       : 2
Format                                   : AC-3
Format/Info                              : Audio Coding 3
Codec ID                                 : A_AC3
Duration                                 : 1 h 52 min
Bit rate mode                            : Constant
Bit rate                                 : 192 kb/s
Channel(s)                               : 2 channels
Channel positions                        : Front: L R
Sampling rate                            : 48.0 kHz
Frame rate                               : 31.250 FPS (1536 SPF)
Bit depth                                : 16 bits
Compression mode                         : Lossy
Stream size                              : 154 MiB (1%)
Title                                    : 2.0 [192 Kbps] — професійний дубльований | запис з 1+1
Language                                 : Ukrainian
Service kind                             : Complete Main
Default                                  : Yes
Forced                                   : No

Audio #2
ID                                       : 3
Format                                   : AC-3
Format/Info                              : Audio Coding 3
Codec ID                                 : A_AC3
Duration                                 : 1 h 51 min
Bit rate mode                            : Constant
Bit rate                                 : 448 kb/s
Channel(s)                               : 6 channels
Channel positions                        : Front: L C R, Side: L R, LFE
Sampling rate                            : 48.0 kHz
Frame rate                               : 31.250 FPS (1536 SPF)
Bit depth                                : 16 bits
Compression mode                         : Lossy
Delay relative to video                  : 3 s 40 ms
Stream size                              : 359 MiB (3%)
Title                                    : 5.1 [448 Kbps] — багатоголосий закадровий | AAA Sound
Language                                 : Ukrainian
Service kind                             : Complete Main
Default                                  : No
Forced                                   : No

Audio #3
ID                                       : 4
Format                                   :
Format/Info                              : Digital Theater Systems
Codec ID                                 : A_DTS
Duration                                 : 1 h 52 min
Bit rate mode                            : Constant
Bit rate                                 : 1 509 kb/s
Channel(s)                               : 6 channels
Channel positions                        : Front: L C R, Side: L R, LFE
Sampling rate                            : 48.0 kHz
Frame rate                               : 93.750 FPS (512 SPF)
Bit depth                                : 24 bits
Compression mode                         : Lossy
Stream size                              : 1.18 GiB (11%)
Title                                    : 5.1 [1536 Kbps] — багатоголосий закадровий | Hurtom
Language                                 : Ukrainian
Default                                  : No
Forced                                   : No

Audio #4
ID                                       : 5
Format                                   :
Format/Info                              : Digital Theater Systems
Codec ID                                 : A_DTS
Duration                                 : 1 h 52 min
Bit rate mode                            : Constant
Bit rate                                 : 1 509 kb/s
Channel(s)                               : 6 channels
Channel positions                        : Front: L C R, Side: L R, LFE
Sampling rate                            : 48.0 kHz
Frame rate                               : 93.750 FPS (512 SPF)
Bit depth                                : 24 bits
Compression mode                         : Lossy
Stream size                              : 1.18 GiB (11%)
Title                                    : 5.1 [1536 Kbps] — оригінал
Language                                 : French
Default                                  : No
Forced                                   : No

Text #1
ID                                       : 6
Format                                   : UTF-8
Codec ID                                 : S_TEXT/UTF8
Codec ID/Info                            : UTF-8 Plain Text
Duration                                 : 1 h 46 min
Bit rate                                 : 99 b/s
Count of elements                        : 1497
Stream size                              : 77.5 KiB (0%)
Title                                    : by AlanAlan
Language                                 : Ukrainian
Default                                  : No
Forced                                   : No

Text #2
ID                                       : 7
Format                                   : UTF-8
Codec ID                                 : S_TEXT/UTF8
Codec ID/Info                            : UTF-8 Plain Text
Duration                                 : 1 h 46 min
Bit rate                                 : 96 b/s
Count of elements                        : 1495
Stream size                              : 75.4 KiB (0%)
Title                                    : by SergoMozaic
Language                                 : Ukrainian
Default                                  : No
Forced                                   : No

Text #3
ID                                       : 8
Format                                   : UTF-8
Codec ID                                 : S_TEXT/UTF8
Codec ID/Info                            : UTF-8 Plain Text
Duration                                 : 1 h 51 min
Bit rate                                 : 47 b/s
Count of elements                        : 1510
Stream size                              : 39.1 KiB (0%)
Language                                 : French
Default                                  : No
Forced                                   : No

Menu
00:00:00.000                             : en:00:00:00.000
00:07:26.000                             : en:00:07:26.000
00:12:54.375                             : en:00:12:54.375
00:18:56.667                             : en:00:18:56.667
00:26:51.958                             : en:00:26:51.958
00:30:50.708                             : en:00:30:50.708
00:37:26.208                             : en:00:37:26.208
00:42:05.667                             : en:00:42:05.667
00:48:45.333                             : en:00:48:45.333
00:54:26.250                             : en:00:54:26.250
00:58:02.708                             : en:00:58:02.708
01:04:06.833                             : en:01:04:06.833
01:14:27.042                             : en:01:14:27.042
01:21:39.833                             : en:01:21:39.833
01:29:26.125                             : en:01:29:26.125
01:35:56.875                             : en:01:35:56.875
01:40:22.042                             : en:01:40:22.042
01:45:12.542                             : en:01:45:12.542
Скріншоти




Джерело:
Особиста оцінка: 10 - без зайвих вагань рекомендую всім!


Золотий реліз (завантажене не впливає на рейтинг)
 Трекер:    Зареєстрований   

Завантажити / скачати фільм українською



відео для новачків



 Зареєстрований:   2018-10-18 09:34
 Розмір:   10.83 GB 
 Оцінка фільму:   9.8/10 (Голосів: 10)
   
Ваш часовий пояс: GMT + 2 Години

Нова тема   Відповісти