Готель «Артеміда» / Hotel Artemis (2018) 1080p Ukr/Eng | Sub Eng

Нові коментарі

Нова тема   Відповісти
Автор Повідомлення
staf777 
Відео Гуртом - підтримка та поширення
Відео Гуртом - підтримка та поширення


З нами з: 16.11.16
Востаннє: 25.09.20
Повідомлень: 4034

2018-10-17 22:42  
Готель «Артеміда» / Hotel Artemis (2018) 1080p Ukr/Eng | Sub Eng

Готель «Артеміда» / Hotel Artemis (2018) 1080p Ukr/Eng | Sub Eng
«Ніякої зброї. Ніяких копів. Ніяких вбивств інших пацієнтів»

Жанр: бойовик, кримінальний, трилер, фантастика
Країна: Велика Британія, США



Кінокомпанія: The Ink Factory,Marc Platt Productions,Point of No Return
Режисер: Дрю Пірс
Актори: Джоді Фостер, Стерлінг К. Браун, Софія Бутелла, Джефф Голдблюм, Брайан Тайрі Генрі, Дженні Слейт, Закарі Квінто, Чарлі Дей, Дейв Батіста, Кеннет Чої

Сюжет:
Сюжет картини розповідає про найближче майбутнє, в якому Лос-Анджелес охоплено масовими заворушеннями, а в місті знаходиться секретний шпиталь для порушників закону.


Тривалість: 01:33:45
Якість:
Відео:
кодек:
розмір кадру: 1920x800
бітрейт: 13 Мб/с

Аудіо # 1:
мова: українська
переклад: професійний дубльований
кодек: 2.0
бітрейт: 192 кб/с

Аудіо # 2:
мова: англійська
переклад: оригінал
кодек: 5.1
бітрейт: 1509 кб/с

Субтитри:
мова: англійська
тип: програмні (м'які)
формат: *.srt
Info
General
Unique ID : 201037641209088587159609077630009864129 (0x973E70FA0B0DB25F69DFB620115BEFC1)
Complete name : N:\Фільми HD\Фантастика\Hotel Artemis (2018) 1080p [UKR_ENG] [Hurtom].
Format :
Format version : Version 4 / Version 2
File size : 9.63 GiB
Duration : 1 h 33 min
Overall bit rate mode : Variable
Overall bit rate : 14.7 Mb/s
Movie name : Hotel Artemis (2018) 1080p [UKR_ENG] [Hurtom]
Encoded date : UTC 2018-10-17 20:14:11
Writing application : v24.0.0 ('Beyond The Pale') 64-bit
Writing library : libebml v1.3.6 + v1.4.9
Cover : Yes
Attachments : cover

Video
ID : 1
Format : AVC
Format/Info : Advanced Video Codec
Format profile : [email protected]
Format settings : CABAC / 4 Ref Frames
Format settings, CABAC : Yes
Format settings, ReFrames : 4 frames
Codec ID : V_MPEG4/ISO/AVC
Duration : 1 h 33 min
Bit rate mode : Variable
Bit rate : 13.0 Mb/s
Maximum bit rate : 50.0 Mb/s
Width : 1 920 pixels
Height : 800 pixels
Display aspect ratio : 2.40:1
Frame rate mode : Constant
Frame rate : 23.976 (24000/1001) FPS
Color space : YUV
Chroma subsampling : 4:2:0
Bit depth : 8 bits
Scan type : Progressive
Bits/(Pixel*Frame) : 0.353
Stream size : 8.51 GiB (88%)
Title : iFT
Writing library : core 142 r2431+42 c69a006 tMod [[email protected] X86_64]
Encoding settings : cabac=1 / ref=5 / deblock=1:-3:-3 / analyse=0x3:0x133 / me=umh / subme=11 / psy=1 / fade_compensate=0.00 / psy_rd=1.04:1.05 / mixed_ref=1 / me_range=48 / chroma_me=1 / trellis=2 / 8x8dct=1 / cqm=0 / deadzone=21,11 / fast_pskip=0 / chroma_qp_offset=-4 / threads=16 / lookahead_threads=2 / sliced_threads=0 / nr=0 / decimate=0 / interlaced=0 / bluray_compat=0 / constrained_intra=0 / fgo=0 / bframes=8 / b_pyramid=1 / b_adapt=2 / b_bias=0 / direct=3 / weightb=1 / open_gop=0 / weightp=2 / keyint=240 / keyint_min=23 / scenecut=40 / intra_refresh=0 / rc_lookahead=150 / rc=2pass / mbtree=0 / bitrate=13000 / ratetol=1.0 / qcomp=0.70 / qpmin=0:0:0 / qpmax=69:69:69 / qpstep=4 / cplxblur=20.0 / qblur=0.5 / vbv_maxrate=50000 / vbv_bufsize=62500 / nal_hrd=vbr / filler=0 / ip_ratio=1.30 / pb_ratio=1.20 / aq=2:0.80 / aq-sensitivity=10.00 / aq-factor=1.00:1.00:1.00 / aq2=0 / aq3=0
Language : English
Default : Yes
Forced : No
Color range : Limited
Color primaries : BT.709
Transfer characteristics : BT.709
Matrix coefficients : BT.709

Audio #1
ID : 2
Format : AC-3
Format/Info : Audio Coding 3
Codec ID : A_AC3
Duration : 1 h 33 min
Bit rate mode : Constant
Bit rate : 192 kb/s
Channel(s) : 2 channels
Channel positions : Front: L R
Sampling rate : 48.0 kHz
Frame rate : 31.250 FPS (1536 SPF)
Bit depth : 16 bits
Compression mode : Lossy
Stream size : 129 MiB (1%)
Title : 2.0 @ 192 kbps
Language : Ukrainian
Service kind : Complete Main
Default : Yes
Forced : Yes

Audio #2
ID : 3
Format :
Format/Info : Digital Theater Systems
Codec ID : A_DTS
Duration : 1 h 33 min
Bit rate mode : Constant
Bit rate : 1 509 kb/s
Channel(s) : 6 channels
Channel positions : Front: L C R, Side: L R, LFE
Sampling rate : 48.0 kHz
Frame rate : 93.750 FPS (512 SPF)
Bit depth : 24 bits
Compression mode : Lossy
Stream size : 1 012 MiB (10%)
Language : English
Default : No
Forced : No

Text
ID : 4
Format : UTF-8
Codec ID : S_TEXT/UTF8
Codec ID/Info : UTF-8 Plain Text
Duration : 1 h 29 min
Bit rate : 69 b/s
Count of elements : 1454
Stream size : 45.8 KiB (0%)
Language : English
Default : No
Forced : No

Menu
00:00:00.000 : en:Chapter 01
00:05:09.684 : en:Chapter 02
00:13:06.076 : en:Chapter 03
00:17:40.309 : en:Chapter 04
00:22:09.619 : en:Chapter 05
00:28:00.095 : en:Chapter 06
00:33:35.054 : en:Chapter 07
00:38:58.502 : en:Chapter 08
00:42:21.872 : en:Chapter 09
00:46:53.018 : en:Chapter 10
00:52:45.871 : en:Chapter 11
00:56:43.566 : en:Chapter 12
01:00:13.651 : en:Chapter 13
01:04:05.258 : en:Chapter 14
01:08:45.287 : en:Chapter 15
01:13:52.719 : en:Chapter 16
01:18:17.693 : en:Chapter 17
01:24:49.751 : en:Chapter 18
01:33:45.411 : en:Chapter 19
Скріншоти




Джерело: &
Особиста оцінка: 0 - не дивився
Готель «Артеміда» / Hotel Artemis (2018) 1080p Ukr/Eng | Sub Eng
Готель «Артеміда» / Hotel Artemis (2018) 1080p Ukr/Eng | Sub Eng


 Трекер:    Зареєстрований   

Завантажити / скачати фільм українською



відео для новачків



 Зареєстрований:   2018-10-17 23:25
 Розмір:   9.63 GB 
 Оцінка фільму:   7.9/10 (Голосів: 34)
   
Інші релізи
Wensun 
Поважний учасник


З нами з: 20.01.09
Востаннє: 23.09.20
Повідомлень: 180

2018-10-18 19:59  
Сильне кіно ! рекомендую ! головне день до релізу скачав з іноземного торента, ну чо так ? і подивився
cubulkas 
Новенький


З нами з: 02.02.11
Востаннє: 16.09.20
Повідомлень: 2

2018-10-18 20:26  
Кіно на раз =)
yevhen999 
Новенький


З нами з: 18.11.13
Востаннє: 23.09.20
Повідомлень: 5

2018-10-22 11:30  
За реліз спасибі, но фільм повна фігня, давно такого не бачив, ні початку ні сюжета ні кінцівки, для чого таке взагалі знімають
t.soohov 
Новенький


З нами з: 08.05.15
Востаннє: 20.09.20
Повідомлень: 6

2018-11-22 17:21  
Схоже, американське кіно вмирає. Настає доба кінокоміксів та комп'ютерних ефектів на зміну майстерності акторів, таланту режиссерів, старанності сценаристів. Поняття "зірки" дискредитоване - раніше хтось вірив, що Д.Фостер споживає лише нектар з амброзією. Як бачимо зараз, вона може також гризти "незапарену мівіну".
Поставив фільму дві зірочки. Одну за синю, другу за червону лампочки на одностроях поліцейських. Саме вдале режисерське рішення)

Ваш часовий пояс: GMT + 2 Години

Нова тема   Відповісти