Готель «Артеміда» / Hotel Artemis (2018) 720p Ukr/Eng | Sub Eng

Нові коментарі

Нова тема   Відповісти
Автор Повідомлення
staf777 
Відео Гуртом - підтримка та поширення
Відео Гуртом - підтримка та поширення


З нами з: 16.11.16
Востаннє: 23.09.20
Повідомлень: 4030

2018-10-17 22:38  
Готель «Артеміда» / Hotel Artemis (2018) 720p Ukr/Eng | Sub Eng

Готель «Артеміда» / Hotel Artemis (2018) 720p Ukr/Eng | Sub Eng
«Ніякої зброї. Ніяких копів. Ніяких вбивств інших пацієнтів»

Жанр: бойовик, кримінальний, трилер, фантастика
Країна: Велика Британія, США



Кінокомпанія: The Ink Factory,Marc Platt Productions,Point of No Return
Режисер: Дрю Пірс
Актори: Джоді Фостер, Стерлінг К. Браун, Софія Бутелла, Джефф Голдблюм, Брайан Тайрі Генрі, Дженні Слейт, Закарі Квінто, Чарлі Дей, Дейв Батіста, Кеннет Чої

Сюжет:
Сюжет картини розповідає про найближче майбутнє, в якому Лос-Анджелес охоплено масовими заворушеннями, а в місті знаходиться секретний шпиталь для порушників закону.


Тривалість: 01:33:45
Якість:
Відео:
кодек:
розмір кадру: 1280x534
бітрейт: 6928 кб/с

Аудіо # 1:
мова: українська
переклад: професійний дубльований
кодек: 2.0
бітрейт: 192 кб/с

Аудіо # 2:
мова: англійська
переклад: оригінал
кодек: 5.1
бітрейт: 640 кб/с

Субтитри # 1-2: [Full][SDH]
мова: англійська
тип: програмні (м'які)
формат: *.srt
Info
General
Unique ID : 219580297603660688955419882936118824660 (0xA531A085619429DF2FD20B7BD2A84ED4)
Complete name : N:\Hotel Artemis (2018) 720p [UKR_ENG] [Hurtom].
Format :
Format version : Version 4 / Version 2
File size : 5.08 GiB
Duration : 1 h 33 min
Overall bit rate : 7 764 kb/s
Movie name : Hotel Artemis (2018) 720p [UKR_ENG] [Hurtom]
Encoded date : UTC 2018-10-17 19:54:28
Writing application : v24.0.0 ('Beyond The Pale') 64-bit
Writing library : libebml v1.3.6 + v1.4.9
Cover : Yes
Attachments : cover

Video
ID : 1
Format : AVC
Format/Info : Advanced Video Codec
Format profile : [email protected]
Format settings : CABAC / 12 Ref Frames
Format settings, CABAC : Yes
Format settings, ReFrames : 12 frames
Codec ID : V_MPEG4/ISO/AVC
Duration : 1 h 33 min
Bit rate : 6 928 kb/s
Width : 1 280 pixels
Height : 534 pixels
Display aspect ratio : 2.40:1
Frame rate mode : Constant
Frame rate : 23.976 (24000/1001) FPS
Color space : YUV
Chroma subsampling : 4:2:0
Bit depth : 8 bits
Scan type : Progressive
Bits/(Pixel*Frame) : 0.423
Stream size : 4.54 GiB (89%)
Title : CHC
Writing library : core 155 r2867+74 66b5600 t_mod_Custom_2 [[email protected] X86_64]
Encoding settings : cabac=1 / ref=12 / deblock=1:-3:-3 / analyse=0x3:0x113 / me=umh / subme=11 / psy=1 / fade_compensate=0.00 / psy_rd=1.00:0.00 / mixed_ref=1 / me_range=32 / chroma_me=1 / trellis=2 / 8x8dct=1 / cqm=0 / deadzone=21,11 / fast_pskip=0 / chroma_qp_offset=-2 / threads=12 / lookahead_threads=3 / sliced_threads=0 / nr=0 / decimate=0 / interlaced=0 / bluray_compat=0 / constrained_intra=0 / fgo=0 / bframes=12 / b_pyramid=2 / b_adapt=2 / b_bias=0 / direct=3 / weightb=1 / open_gop=0 / weightp=2 / keyint=250 / keyint_min=23 / scenecut=40 / intra_refresh=0 / rc_lookahead=60 / rc=crf / mbtree=0 / crf=15.5000 / qcomp=0.60 / qpmin=0:0:0 / qpmax=69:69:69 / qpstep=4 / vbv_maxrate=30000 / vbv_bufsize=38000 / crf_max=0.0 / nal_hrd=none / filler=0 / ip_ratio=1.30 / pb_ratio=1.20 / aq=3:0.80 / aq-sensitivity=10.00 / aq-factor=1.00:1.00:1.00 / aq2=0 / aq3=0 / zones=15914,16157,crf=13/65312,65407,crf=13/65260,65407,crf=13/123812,134780,crf=19/134782,134879,crf=13
Language : English
Default : Yes
Forced : No
Color range : Limited
Color primaries : BT.709
Transfer characteristics : BT.709
Matrix coefficients : BT.709

Audio #1
ID : 2
Format : AC-3
Format/Info : Audio Coding 3
Codec ID : A_AC3
Duration : 1 h 33 min
Bit rate mode : Constant
Bit rate : 192 kb/s
Channel(s) : 2 channels
Channel positions : Front: L R
Sampling rate : 48.0 kHz
Frame rate : 31.250 FPS (1536 SPF)
Bit depth : 16 bits
Compression mode : Lossy
Stream size : 129 MiB (2%)
Title : 2.0 @ 192 kbps
Language : Ukrainian
Service kind : Complete Main
Default : Yes
Forced : Yes

Audio #2
ID : 3
Format : AC-3
Format/Info : Audio Coding 3
Codec ID : A_AC3
Duration : 1 h 33 min
Bit rate mode : Constant
Bit rate : 640 kb/s
Channel(s) : 6 channels
Channel positions : Front: L C R, Side: L R, LFE
Sampling rate : 48.0 kHz
Frame rate : 31.250 FPS (1536 SPF)
Bit depth : 16 bits
Compression mode : Lossy
Stream size : 429 MiB (8%)
Language : English
Service kind : Complete Main
Default : No
Forced : No

Text #1
ID : 4
Format : UTF-8
Codec ID : S_TEXT/UTF8
Codec ID/Info : UTF-8 Plain Text
Duration : 1 h 26 min
Bit rate : 68 b/s
Count of elements : 1401
Stream size : 43.1 KiB (0%)
Title : Full
Language : English
Default : No
Forced : No

Text #2
ID : 5
Format : UTF-8
Codec ID : S_TEXT/UTF8
Codec ID/Info : UTF-8 Plain Text
Duration : 1 h 33 min
Bit rate : 76 b/s
Count of elements : 1678
Stream size : 52.3 KiB (0%)
Title : SDH
Language : English
Default : No
Forced : No

Menu
00:00:00.000 : en:Chapter 1
00:05:09.684 : en:Chapter 2
00:13:06.076 : en:Chapter 3
00:17:40.309 : en:Chapter 4
00:22:09.619 : en:Chapter 5
00:28:00.095 : en:Chapter 6
00:33:35.054 : en:Chapter 7
00:38:58.502 : en:Chapter 8
00:42:21.872 : en:Chapter 9
00:46:53.018 : en:Chapter 10
00:52:45.871 : en:Chapter 11
00:56:43.566 : en:Chapter 12
01:00:13.651 : en:Chapter 13
01:04:05.258 : en:Chapter 14
01:08:45.287 : en:Chapter 15
01:13:52.719 : en:Chapter 16
01:18:17.693 : en:Chapter 17
01:24:49.751 : en:Chapter 18
Скріншоти



Подяка пану Electroz за синхронізацію.
Джерело: &
Особиста оцінка: 0 - не дивився
Готель «Артеміда» / Hotel Artemis (2018) 720p Ukr/Eng | Sub Eng
Готель «Артеміда» / Hotel Artemis (2018) 720p Ukr/Eng | Sub Eng


 Трекер:    Зареєстрований   

Завантажити / скачати фільм українською



відео для новачків



 Зареєстрований:   2018-10-17 23:04
 Розмір:   5.08 GB 
 Оцінка фільму:   8.5/10 (Голосів: 26)
   
Інші релізи
go2doctor 
Новенький


З нами з: 04.12.11
Востаннє: 11.07.20
Повідомлень: 1

2018-11-04 16:22  
По опису нагадує готель, який висмикнули з Джона Уіка.
Ваш часовий пояс: GMT + 2 Години

Нова тема   Відповісти