Апачі / Apachen (1973) 720p Ukr/Ger | Sub Eng

Нові коментарі

Нова тема   Відповісти
Автор Повідомлення
staf777 
Відео Гуртом - підтримка та поширення
Відео Гуртом - підтримка та поширення


З нами з: 16.11.16
Востаннє: 27.09.20
Повідомлень: 4053

2018-10-17 22:11  
Апачі / Apachen (1973) 720p Ukr/Ger | Sub Eng

Апачі / Apachen (1973) 720p Ukr/Ger | Sub Eng


Жанр: вестерн
Країна: НДР, Румунія, Совєти



Кінокомпанія: Deutsche Film (DEFA), Filmstudio Bucuresti, Mosfilm
Режисер: Ґоттфрід Колдітц
Актори: Ґойко Мітіч, Мілан Белі, Коля Рауту та інші

Сюжет:
1848 рік, прикордонний регіон між США та Мексикою. В прикордонному штаті Нью-Мексико, на землях, які належали індіанцям-апачам з племені мімбреньйо, знайдені поклади міді та срібла. Поклади металів приваблюють американського геолога Джонсона. Він зазіхнув на ці землі та розстріляв індіанців з гармати. Крім того, він отримав велику премію за скальпи індіанців. Тільки небагатьом з індіанців вдалось урятуватись, серед них вождь Ульзана. Закони племені вимагають покарати вбивцю..


Тривалість: 01:29:46
Якість: 720p
Відео:
кодек:
розмір кадру: 1280x544
бітрейт: 6008 кб/с

Аудіо # 1:
мова: українська
переклад: двоголосий закадровий
кодек: 2.0
бітрейт: 192 кб/с

Аудіо # 2:
мова: німецька
переклад: оригінал
кодек: 2.0
бітрейт: 224 кб/с

Субтитри:
мова: англійська
тип: програмні (м'які)
формат: *.srt
Info
General
Unique ID : 269794119909446825577665952516223900287 (0xCAF8751A7B2D397EBFD034D9BED19A7F)
Complete name : N:\Майбутні релізи\Apachen (1973) 720p [UA] [GER] [Hurtom].
Format :
Format version : Version 4 / Version 2
File size : 4.03 GiB
Duration : 1 h 29 min
Overall bit rate : 6 427 kb/s
Movie name : Apachen (1973) 720p [UA] [GER] [Hurtom]
Encoded date : UTC 2018-10-17 18:30:28
Writing application : v24.0.0 ('Beyond The Pale') 64-bit
Writing library : libebml v1.3.6 + v1.4.9
Cover : Yes
Attachments : cover.jpg

Video
ID : 1
Format : AVC
Format/Info : Advanced Video Codec
Format profile : [email protected]
Format settings : CABAC / 7 Ref Frames
Format settings, CABAC : Yes
Format settings, ReFrames : 7 frames
Codec ID : V_MPEG4/ISO/AVC
Duration : 1 h 29 min
Bit rate : 6 008 kb/s
Width : 1 280 pixels
Height : 544 pixels
Display aspect ratio : 2.35:1
Frame rate mode : Constant
Frame rate : 25.000 FPS
Color space : YUV
Chroma subsampling : 4:2:0
Bit depth : 8 bits
Scan type : Progressive
Bits/(Pixel*Frame) : 0.345
Stream size : 3.77 GiB (93%)
Title : Apachen (1973)
Writing library : core 130 r2273 b3065e6
Encoding settings : cabac=1 / ref=7 / deblock=1:-2:-2 / analyse=0x3:0x133 / me=umh / subme=9 / psy=1 / psy_rd=1.00:0.20 / mixed_ref=1 / me_range=24 / chroma_me=1 / trellis=2 / 8x8dct=1 / cqm=0 / deadzone=21,11 / fast_pskip=0 / chroma_qp_offset=-3 / threads=6 / lookahead_threads=1 / sliced_threads=0 / nr=0 / decimate=0 / interlaced=0 / bluray_compat=0 / constrained_intra=0 / bframes=5 / b_pyramid=2 / b_adapt=2 / b_bias=0 / direct=3 / weightb=1 / open_gop=0 / weightp=2 / keyint=250 / keyint_min=25 / scenecut=40 / intra_refresh=0 / rc_lookahead=50 / rc=2pass / mbtree=1 / bitrate=6008 / ratetol=1.0 / qcomp=0.60 / qpmin=0 / qpmax=69 / qpstep=4 / cplxblur=20.0 / qblur=0.5 / ip_ratio=1.40 / aq=1:1.00
Language : German
Default : Yes
Forced : No

Audio #1
ID : 2
Format : AC-3
Format/Info : Audio Coding 3
Codec ID : A_AC3
Duration : 1 h 29 min
Bit rate mode : Constant
Bit rate : 192 kb/s
Channel(s) : 2 channels
Channel positions : Front: L R
Sampling rate : 48.0 kHz
Frame rate : 31.250 FPS (1536 SPF)
Bit depth : 16 bits
Compression mode : Lossy
Stream size : 123 MiB (3%)
Title : [UA-DVO]
Language : Ukrainian
Service kind : Complete Main
Default : Yes
Forced : Yes

Audio #2
ID : 3
Format : AC-3
Format/Info : Audio Coding 3
Codec ID : A_AC3
Duration : 1 h 29 min
Bit rate mode : Constant
Bit rate : 224 kb/s
Channel(s) : 2 channels
Channel positions : Front: L R
Sampling rate : 48.0 kHz
Frame rate : 31.250 FPS (1536 SPF)
Bit depth : 16 bits
Compression mode : Lossy
Stream size : 144 MiB (3%)
Title : Original
Language : German
Service kind : Complete Main
Default : No
Forced : No

Text
ID : 4
Format : UTF-8
Codec ID : S_TEXT/UTF8
Codec ID/Info : UTF-8 Plain Text
Duration : 1 h 25 min
Bit rate : 23 b/s
Count of elements : 496
Stream size : 14.7 KiB (0%)
Title : Full
Language : English
Default : No
Forced : No

Menu
00:00:00.000 : en:Chapter 01
00:09:19.560 : en:Chapter 02
00:16:14.200 : en:Chapter 03
00:31:21.000 : en:Chapter 04
00:44:45.720 : en:Chapter 05
00:58:06.280 : en:Chapter 06
01:09:55.240 : en:Chapter 07
01:23:04.680 : en:Chapter 08
Скріншоти




Подяка пану krigg070 за запис звуку та його синхронізацію.
Джерело: &
Особиста оцінка: 10 - без зайвих вагань рекомендую всім!
Апачі / Apachen (1973) 720p Ukr/Ger | Sub Eng
Апачі / Apachen (1973) 720p Ukr/Ger | Sub Eng


 Трекер:    Зареєстрований   

Завантажити / скачати фільм українською



відео для новачків



 Зареєстрований:   2018-10-17 22:11
 Розмір:   4.03 GB 
 Оцінка фільму:   7.8/10 (Голосів: 8)
   
Інші релізи
   Апачі / Apachen (1973) AVC Ukr/Ger | Sub Eng staf777  1 / 0   2.18 GB   2018-10-18 09:54 
   Апачі / Apachen (1973) Remux 1080i Ukr/Ger | Sub Eng kryk-v.ya.  1 / 0   20.77 GB   2018-10-02 18:23 
   Апачі / Apachen (1973) krigg070  3 / 0   1.37 GB   2017-10-15 13:52 
Ваш часовий пояс: GMT + 2 Години

Нова тема   Відповісти