У кращому світі (Сезони 1-3) / The Good Place (Season 1-3) (2016-2018) / 720p Eng | sub Ukr/Eng

Нові коментарі

Нова тема   Відповісти
Автор Повідомлення
Anonymous 







2018-10-17 19:48  
У кращому світі (Сезони 1-3) / The Good Place (Season 1-3) (2016-2018) / 720p Eng | sub Ukr/Eng



Жанр: комедія, драма, фентезі
Країна: США



Кінокомпанія: Netflix
Автор ідеї: Майкл Шур
Актори: Крістен Белл, Тед Денсон, Дяміела Яаміль, Вільям Джексон Гарпер, Менні Хасінто, Тія Сіркар, Марк Івен Джексон.

Сюжет:
Менеджер з продажу Елеанор Шелстроп все життя була не дуже хорошою людиною. Однак загинувши в результаті ганебного нещасного випадку, вона помилково потрапляє у кращий світ.
перелік серій
1 сезон
1.Everything Is Fine
2.Flying
3.Tahani Al-Jamil
4.Jason Mendoza
5.Category 55 Emergency Doomsday Crisis
6.What We Owe to Each Other
7.The Eternal Shriek
8.Most Improved Player
9....Someone Like Me as a Member
10.Chidi's Choice
11.What's My Motivation
12.Mindy St. Claire
13.Michael's Gambit

2 сезон

1.Everything Is Great! Part 1
2.Everything Is Great! Part 2
3.Dance Dance Resolution
4.Team Cockroach
5.Existential Crisis
6.The Trolley Problem
7.Janet and Michael
8.Derek
9.Leap to Faith
10.Best Self
11.Rhonda, Diana, Jake, and Trent
12.The Burrito
13.Somewhere Else

3 сезон
1.Everything Is Bonzer! Part 1
2.Everything Is Bonzer! Part 2
3.The Brainy Bunch
4.The Snowplow
5.Jeremy Bearimy
6.The Ballad of Donkey Doug
7.A Fractured Inheritance
8.The Worst Possible Use of Free Will
9.Don't Let the Good Life Pass You By
10.Janet
11.The Book of Dougs
12.Chidi Sees the Time-Knife
13.Pandemonium
Тривалість: 1 серія: 22 хв. (цілком серій 37)
Якість:
Відео:
кодек:
розмір кадру: 1280 х 720
бітрейт: 2800-4300 кб/с

Аудіо:
мова: англійська
переклад: оригінал
кодек: 5.1
бітрейт: 384 кб/с

Субтитри:
мова: українська
тип: програмні (м'які)
формат: *.srt
переклад: Руслан Поліщук

Субтитри:
мова: англійська
тип: програмні (м'які)
формат: *.srt
Скріншоти






Info
Format :
Format version : Version 4 / Version 2
File size : 723 MiB
Duration : 22 min 50 s
Overall bit rate : 4 424 kb/s
Encoded date : UTC 2018-09-23 18:36:54
Writing application : v26.0.0 ('In The Game') 64-bit
Writing library : libebml v1.3.6 + v1.4.9

Video
ID : 1
Format : AVC
Format/Info : Advanced Video Codec
Format profile : [email protected]
Format settings : 2 Ref Frames
Format settings, CABAC : No
Format settings, ReFrames : 2 frames
Codec ID : V_MPEG4/ISO/AVC
Duration : 22 min 50 s
Bit rate : 4 037 kb/s
Width : 1 280 pixels
Height : 720 pixels
Display aspect ratio : 16:9
Frame rate mode : Constant
Frame rate : 23.976 (24000/1001) FPS
Color space : YUV
Chroma subsampling : 4:2:0
Bit depth : 8 bits
Scan type : Progressive
Bits/(Pixel*Frame) : 0.183
Stream size : 660 MiB (91%)
Language : English
Default : Yes
Forced : No
Color range : Limited
Color primaries : BT.709
Transfer characteristics : BT.709
Matrix coefficients : BT.709

Audio
ID : 2
Format : AC-3
Format/Info : Audio Coding 3
Commercial name : Dolby Digital
Codec ID : A_AC3
Duration : 22 min 50 s
Bit rate mode : Constant
Bit rate : 384 kb/s
Channel(s) : 6 channels
Channel layout : L R C LFE Ls Rs
Sampling rate : 48.0 kHz
Frame rate : 31.250 FPS (1536 SPF)
Bit depth : 16 bits
Compression mode : Lossy
Stream size : 62.8 MiB (9%)
Language : English
Service kind : Complete Main
Default : No
Forced : No

Text #1
ID : 3
Format : UTF-8
Codec ID : S_TEXT/UTF8
Codec ID/Info : UTF-8 Plain Text
Duration : 22 min 31 s
Bit rate : 169 b/s
Count of elements : 500
Stream size : 27.9 KiB (0%)
Language : Ukrainian
Default : Yes
Forced : No

Text #2
ID : 4
Format : UTF-8
Codec ID : S_TEXT/UTF8
Codec ID/Info : UTF-8 Plain Text
Duration : 22 min 40 s
Bit rate : 114 b/s
Count of elements : 636
Stream size : 19.0 KiB (0%)
Language : English
Default : No
Forced : No
Джерело:
Особиста оцінка: 10 - без зайвих вагань рекомендую всім!


Срібний реліз (на рейтинг впливає 50% завантаженого)
 Трекер:    Зареєстрований   

Завантажити / скачати серіал українською



відео для новачків



 Зареєстрований:   2019-03-09 15:06
 Розмір:   23.43 GB 
 Оцінка серіалу:   8.9/10 (Голосів: 22)
   
armogun 
Попереджень: 1
Попереджень: 1 


З нами з: 04.05.13
Востаннє: 22.09.19
Повідомлень: 532

2018-10-17 22:37  
Майкл Щур ? Краще б це озвучили ніж затухле надприроднє
vovkulak88 
Новенький


З нами з: 08.09.09
Востаннє: 22.09.19
Повідомлень: 19

2018-10-18 03:47  
armogun
та не Щур, а Шур Happy То різні люди в нашій версії всесвіту))

Петров Микола 
VIP


З нами з: 15.08.14
Востаннє: 22.09.19
Повідомлень: 591

2018-11-19 22:08  
А 3 сезон буде?
Anonymous 







2018-11-22 17:39  
..
igor911 
Модератор відео


З нами з: 18.01.08
Востаннє: 23.09.19
Повідомлень: 13389

2018-11-22 19:44  
О,скільки третій сезон не повний, це треба відобразити в назві релізу.

Додано через 38 секунд:

і рік виправити

Anonymous 







2018-11-22 19:59  
igor911
зробив

Anonymous 







2018-12-08 19:57  
Додано нову 9ю серію.


П.С деякі канали, перекладачі першу серію ділять на 2 частини, а тут вона здвоєна тому і нумерація трошки здвинуто.

ron_ 
Частий відвідувач


З нами з: 03.02.11
Востаннє: 22.09.19
Повідомлень: 30

2019-01-21 01:24  
цікава ідея і задумка серіалу
Anonymous 







2019-03-09 14:49  
+ 10,11, 12 серії.
повні 3 сезони.

Ваш часовий пояс: GMT + 2 Години

Нова тема   Відповісти