Мураха Зет / Мураха Антц / Antz (1998) 720p 4xUkr/Eng | Sub Eng

Нові коментарі

Нова тема   Відповісти
Автор Повідомлення
Anonymous 







2018-10-17 14:24  
Мураха Зет / Мураха Антц / Antz (1998) 720p 4xUkr/Eng | Sub Eng

Мураха Зет / Мураха Антц / Antz (1998) 720p 4xUkr/Eng | Sub Eng


Жанр: анімація, дитячий, сімейний, комедія
Країна: США



Кінокомпанія: DreamWorks SKG, Pacific Data Images (PDI), DreamWorks Animation
Режисер: Ерік Дарнелл, Тім Джонсон
Актори: Вуді Аллен, Ден Ейкройд, Енн Бенкрофт, Джейн Кертін, Денні Ґловер, Джин Гекмен, Дженніфер Лопез, Джон Магоні, Пол Мазурскі, Ґрант Шод, Сильвестр Сталлоне, Шарон Стоун, Крістофер Вокен Вуді Аллен, Ден Ейкройд, Енн Бенкрофт, Джейн Кертін, Денні Ґловер, Джин Гекмен, Дженніфер Лопез, Джон Магоні, Пол Мазурскі, Ґрант Шод, Сильвестр Сталлоне, Шарон Стоун, Крістофер Вокен

Сюжет:
Великий мурашник поділений на дві частини: мурашки-робітники і мурашки-солдати. Робітники працюють з ранку до ночі, а солдати воюють з термітами під командуванням владного і заздрісного генерала Мендібала. Так було завжди. І нікому, крім мурашки Антц, що працює на будівництві тунелю, не спадає на думку, що все може бути по-іншому. Одного разу в бар на танці приходить принцеса Бала і там знайомиться з мурахою. Він закохується в красуню з першого погляду. Щоб ще хоча б раз побачити її, Антц міняється місцями з приятелем-солдатом Вівером і вирушає на військовий парад, навіть не здогадуючись, що чекає його попереду.


Тривалість: 01:23:22
Якість: 720p
Відео:
кодек:
розмір кадру: 1280х688
бітрейт: 5 992 кб/с

Аудіо # 1:
мова: українська
переклад: професійний дубльований
кодек: 2.0
бітрейт: 192 кб/с

Аудіо # 2:
мова: українська
переклад: багатоголосий закадровий
кодек: 2.0
бітрейт: 192 кб/с

Аудіо # 3:
мова: українська
переклад: двоголосий закадровий
кодек: 2.0
бітрейт: 192 кб/с

Аудіо # 4:
мова: українська
переклад: професійний дубльований [звук з Інтернет-архіву]
кодек: 2.0
бітрейт: 192 кб/с

Аудіо # 5:
мова: англійська
переклад: оригінал
кодек: 5.1
бітрейт: 1 509 кб/с

Субтитри:
мова: англійська (Full, SDH)
тип: програмні (м'які)
формат: *.srt
Info
General
Unique ID : 187086877593867948750985008675131017486 (0x8CBF9F39D198FF8AABF81EA39054C90E)
Complete name : H:\Toloka\2018\Antz (1998) 720p.
Format :
Format version : Version 4 / Version 2
File size : 4.82 GiB
Duration : 1 h 23 min
Overall bit rate : 8 271 kb/s
Encoded date : UTC 2018-10-17 12:19:16
Writing application : v6.1.0 ('Old Devil') built on Mar 4 2013 09:10:42
Writing library : libebml v1.3.0 + v1.4.0

Video
ID : 1
Format : AVC
Format/Info : Advanced Video Codec
Format profile : [email protected]
Format settings : CABAC / 5 Ref Frames
Format settings, CABAC : Yes
Format settings, ReFrames : 5 frames
Codec ID : V_MPEG4/ISO/AVC
Duration : 1 h 23 min
Bit rate : 5 992 kb/s
Width : 1 280 pixels
Height : 688 pixels
Display aspect ratio : 1.85:1
Frame rate mode : Constant
Frame rate : 23.976 (24000/1001) FPS
Color space : YUV
Chroma subsampling : 4:2:0
Bit depth : 8 bits
Scan type : Progressive
Bits/(Pixel*Frame) : 0.284
Stream size : 3.39 GiB (70%)
Writing library : core 157 r2932 303c484
Encoding settings : cabac=1 / ref=5 / deblock=1:-3:-3 / analyse=0x3:0x113 / me=umh / subme=8 / psy=1 / psy_rd=1.10:0.00 / mixed_ref=1 / me_range=24 / chroma_me=1 / trellis=2 / 8x8dct=1 / cqm=0 / deadzone=21,11 / fast_pskip=1 / chroma_qp_offset=-2 / threads=21 / lookahead_threads=3 / sliced_threads=0 / nr=0 / decimate=1 / interlaced=0 / bluray_compat=0 / constrained_intra=0 / bframes=3 / b_pyramid=2 / b_adapt=2 / b_bias=0 / direct=3 / weightb=1 / open_gop=0 / weightp=2 / keyint=240 / keyint_min=24 / scenecut=40 / intra_refresh=0 / rc_lookahead=50 / rc=2pass / mbtree=1 / bitrate=5992 / ratetol=1.0 / qcomp=0.60 / qpmin=0 / qpmax=69 / qpstep=4 / cplxblur=20.0 / qblur=0.5 / ip_ratio=1.40 / aq=3:0.75
Default : Yes
Forced : No
Statistics Tags Issue : no_variable_data 1970-01-01 00:00:00 / v6.1.0 ('Old Devil') built on Mar 4 2013 09:10:42 2018-10-17 12:19:16
FromStats_BitRate : 5990710
FromStats_Duration : 01:23:21.997000000
FromStats_FrameCount : 119928
FromStats_StreamSize : 3745689255

Audio #1
ID : 2
Format : AC-3
Format/Info : Audio Coding 3
Codec ID : A_AC3
Duration : 1 h 23 min
Bit rate mode : Constant
Bit rate : 192 kb/s
Channel(s) : 2 channels
Channel positions : Front: L R
Sampling rate : 48.0 kHz
Frame rate : 31.250 FPS (1536 SPF)
Bit depth : 16 bits
Compression mode : Lossy
Stream size : 114 MiB (2%)
Title : UKR (ТЕТ)
Language : Ukrainian
Service kind : Complete Main
Default : Yes
Forced : Yes

Audio #2
ID : 3
Format : AC-3
Format/Info : Audio Coding 3
Codec ID : A_AC3
Duration : 1 h 23 min
Bit rate mode : Constant
Bit rate : 192 kb/s
Channel(s) : 2 channels
Channel positions : Front: L R
Sampling rate : 48.0 kHz
Frame rate : 31.250 FPS (1536 SPF)
Bit depth : 16 bits
Compression mode : Lossy
Stream size : 114 MiB (2%)
Title : UKR (К1)
Language : Ukrainian
Service kind : Complete Main
Default : No
Forced : No

Audio #3
ID : 4
Format : AC-3
Format/Info : Audio Coding 3
Codec ID : A_AC3
Duration : 1 h 23 min
Bit rate mode : Constant
Bit rate : 192 kb/s
Channel(s) : 2 channels
Channel positions : Front: L R
Sampling rate : 48.0 kHz
Frame rate : 31.250 FPS (1536 SPF)
Bit depth : 16 bits
Compression mode : Lossy
Stream size : 114 MiB (2%)
Title : UKR (Новий канал)
Language : Ukrainian
Service kind : Complete Main
Default : No
Forced : No

Audio #4
ID : 5
Format : AC-3
Format/Info : Audio Coding 3
Codec ID : A_AC3
Duration : 1 h 23 min
Bit rate mode : Constant
Bit rate : 192 kb/s
Channel(s) : 2 channels
Channel positions : Front: L R
Sampling rate : 48.0 kHz
Frame rate : 31.250 FPS (1536 SPF)
Bit depth : 16 bits
Compression mode : Lossy
Stream size : 114 MiB (2%)
Title : UKR (ICTV)
Language : Ukrainian
Service kind : Complete Main
Default : No
Forced : No

Audio #5
ID : 6
Format :
Format/Info : Digital Theater Systems
Codec ID : A_DTS
Duration : 1 h 23 min
Bit rate mode : Constant
Bit rate : 1 509 kb/s
Channel(s) : 6 channels
Channel positions : Front: L C R, Side: L R, LFE
Sampling rate : 48.0 kHz
Frame rate : 93.750 FPS (512 SPF)
Bit depth : 24 bits
Compression mode : Lossy
Stream size : 900 MiB (18%)
Language : English
Default : No
Forced : No
Statistics Tags Issue : no_variable_data 1970-01-01 00:00:00 / v6.1.0 ('Old Devil') built on Mar 4 2013 09:10:42 2018-10-17 12:19:16
FromStats_BitRate : 1508999
FromStats_Duration : 01:23:22.006000000
FromStats_FrameCount : 468938
FromStats_StreamSize : 943503256

Text #1
ID : 7
Format : UTF-8
Codec ID : S_TEXT/UTF8
Codec ID/Info : UTF-8 Plain Text
Language : English
Default : No
Forced : No
Statistics Tags Issue : no_variable_data 1970-01-01 00:00:00 / v6.1.0 ('Old Devil') built on Mar 4 2013 09:10:42 2018-10-17 12:19:16
FromStats_BitRate : 72
FromStats_Duration : 01:18:58.484000000
FromStats_FrameCount : 1181
FromStats_StreamSize : 43137

Text #2
ID : 8
Format : UTF-8
Codec ID : S_TEXT/UTF8
Codec ID/Info : UTF-8 Plain Text
Title : SDH
Language : English
Default : No
Forced : No
Statistics Tags Issue : no_variable_data 1970-01-01 00:00:00 / v6.1.0 ('Old Devil') built on Mar 4 2013 09:10:42 2018-10-17 12:19:16
FromStats_BitRate : 79
FromStats_Duration : 01:18:58.484000000
FromStats_FrameCount : 1287
FromStats_StreamSize : 47171

Menu
00:00:00.000 : en:00:00:00.000
00:03:16.988 : en:00:03:16.988
00:08:27.340 : en:00:08:27.340
00:11:20.096 : en:00:11:20.096
00:17:46.232 : en:00:17:46.232
00:20:42.992 : en:00:20:42.992
00:24:53.492 : en:00:24:53.492
00:29:05.535 : en:00:29:05.535
00:33:13.408 : en:00:33:13.408
00:36:04.037 : en:00:36:04.037
00:42:42.977 : en:00:42:42.977
00:48:26.070 : en:00:48:26.070
00:56:07.739 : en:00:56:07.739
00:58:58.660 : en:00:58:58.660
01:04:57.936 : en:01:04:57.936
01:07:44.978 : en:01:07:44.978
01:13:33.826 : en:01:13:33.826
01:18:11.103 : en:01:18:11.103
Скріншоти









За українські доріжки подяка п.: xSlim, omm, karvai0, Gonzo, pan_oleg, РОМЕО
За постер подяка п. mishka1998
Особиста подяка пану denixx за надану матеріальну допомогу на підтримку цього і майбутніх релізів.
Джерело:


Срібний реліз (на рейтинг впливає 50% завантаженого)
 Трекер:    Зареєстрований   

Завантажити / скачати мультфільм українською



відео для новачків



 Зареєстрований:   2018-10-17 14:24
 Розмір:   4.82 GB 
 Оцінка мультфільму:   10/10 (Голосів: 6)
   
Інші релізи
Konstantin_Exorcist 
Забанено
Забанено


З нами з: 18.11.14
Востаннє: 15.08.19
Повідомлень: 152

2018-10-17 23:19  
Скажіть будь ласка, а буде AVC версія?
Anonymous 







2018-10-18 06:20  
Konstantin_Exorcist
від мене ні

omm 
Відео Гуртом - фільмокрай
Відео Гуртом - фільмокрай


З нами з: 12.06.12
Востаннє: 02.03.21
Повідомлень: 2443

2018-10-18 15:56  
Не "Пригоди Фліка", звичайно, але по-своєму непоганий мультфільм.
До речі, має досить цікаву історію появи на світ. Колишній працівник Піксар Джефрі Катценберґ хотів насолити своїм колишнім колегам і тупо вкрав їхню ідею мультфільму про мурашиний світ з метою випустити свій фільм раніше за конкурентів. Так і вийшло, але "Пригоди Фліка" все одно зібрали більшу касу і більше сподобались глядачеві.
7 з 10

11FrYkT 
Модератор відео


З нами з: 20.02.11
Востаннє: 02.03.21
Повідомлень: 7152

2018-10-21 20:23  
Anonymous написано:

Info
sss

Anonymous 







2018-10-21 20:25  
11FrYkT
виправив

geroyasfalta 
Свій


З нами з: 20.06.11
Востаннє: 02.03.21
Повідомлень: 94

2018-10-31 18:55  
Дякую!
Ваш часовий пояс: GMT + 2 Години

Нова тема   Відповісти