Маніфест (Сезон 1) / Manifest (Season 1) (2018) 720p Eng | Sub Ukr/Eng

Нові коментарі

Нова тема   Відповісти
Автор Повідомлення
Anonymous 







2018-10-16 17:00  
Маніфест (Сезон 1) / Manifest (Season 1) (2018) 720p Eng | Sub Ukr/Eng

Альтернативні постери:






Жанр: драма, детектив
Країна: США



Кінокомпанія: Compari Entertainment, Jeff Rake Productions, Universal Television, Warner Bros. Television
Виконавчий продюсер: Роберт Земекіс
Автор: Джеф Рейк / Jeff Rake
Актори: Мелісса Роксбур / Melissa Roxburgh, Джош Даллас / Josh Dallas, Атена Карканіс / Athena Karkanis, Дж.Р. Рамірез / J.R. Ramirez, Луна Блейз / Luna Blaise, Джек Мессіна / Jack Messina, Парвін Каур / Parveen Kaur, Тим Моріарті / Tim Moriarty, Альфредо Нарцисо / Alfredo Narciso та інші.

Сюжет:
Авіарейс Монтего 828 безпечно приземляється після польоту, але команда та пасажири виявляють, що за останні кілька годин їхнього польоту світ постарішав на п'ять років, а друзі, колеги та сім'ї, що спочатку не втрачали надії побачити рідних живими, почали жити далі.


Віковий телевізійний рейтинг у США: TV-14 - може містити матеріали, що не підходять для дітей до 14 років

Тривалість: 1 серія: 42 хв. (цілком серій: 16)
Перелік серій:
01. Пілотна / Pilot
02. Повернення / Reentry
03. Турбулентність / Turbulence
04. Незаявлений багаж / Unclaimed Baggage
05. Все пов'язано / Connecting Flights
06. Поза радаром / Off Radar
07. S.N.A.F.U.
08. Точка неповернення / Point of No Return
09. Dead Reckoning
10. Crosswinds
11. Contrails
12. Vanishing Point
13. Cleared for Approach
14. Upgrade
15. Hard Landing
16. Estimated Time of Departure
Якість: 720p [Amazon]
Відео:
кодек:
розмір кадру: 1280х720
бітрейт: 1710 ÷ 3685 кб/с

Аудіо:
мова: англійська
переклад: оригінал
кодек: E- 5.1
бітрейт: 640 кб/с

Субтитри # 1:
мова: українська
тип: програмні (м'які)
формат: *.srt
переклад: любительський, спільнота SubAutumn
коригування/редагування, синхронізація: igor911
примітка: крім контейнера , українські субтитри додано також окремими файлами

Субтитри # 2:
мова: англійська (SDH)
тип: програмні (м'які)
формат: *.srt
Info
Код:
Complete name               : Manifest.S01E01.Pilot..720p.Eng.sub.Ukr.Eng.Hurtom.
Format                      :
Format version              : Version 4
File size                   : 1.07 GiB
Duration                    : 42 min 32 s
Overall bit rate mode       : Variable
Overall bit rate            : 3 585 kb/s
Movie name                  : S01E01 Маніфест / Manifest (2018) [Eng sub.Ukr/Eng] 720p [Hurtom]
Encoded date                : UTC 2018-10-16 14:47:35
Writing application         : v27.0.0 ('Metropolis') 64-bit
Writing library             : libebml v1.3.6 + v1.4.9
Cover                       : Yes
Attachments                 : cover.jpg

Video
ID                          : 1
Format                      : AVC
Format/Info                 : Advanced Video Codec
Format profile              : [email protected]
Format settings             : CABAC / 5 Ref Frames
Format settings, CABAC      : Yes
Format settings, ReFrames   : 5 frames
Codec ID                    : V_MPEG4/ISO/AVC
Duration                    : 42 min 32 s
Bit rate mode               : Variable
Bit rate                    : 2 942 kb/s
Maximum bit rate            : 4 500 kb/s
Width                       : 1 280 pixels
Height                      : 720 pixels
Display aspect ratio        : 16:9
Frame rate mode             : Constant
Frame rate                  : 23.976 (24000/1001) FPS
Color space                 : YUV
Chroma subsampling          : 4:2:0
Bit depth                   : 8 bits
Scan type                   : Progressive
Bits/(Pixel*Frame)          : 0.133
Stream size                 : 895 MiB (82%)
Title                       : S01E01 Маніфест / Manifest (2018) 720p [AMZN..DDP5.1.-AJP69]
Language                    : English
Default                     : Yes
Forced                      : No
Color range                 : Limited
Color primaries             : BT.709
Transfer characteristics    : BT.709
Matrix coefficients         : BT.709

Audio
ID                          : 2
Format                      : E-AC-3
Format/Info                 : Enhanced AC-3
Commercial name             : Dolby Digital Plus
Codec ID                    : A_EAC3
Duration                    : 42 min 31 s
Bit rate mode               : Constant
Bit rate                    : 640 kb/s
Channel(s)                  : 6 channels
Channel layout              : L R C LFE Ls Rs
Sampling rate               : 48.0 kHz
Frame rate                  : 31.250 FPS (1536 SPF)
Compression mode            : Lossy
Stream size                 : 195 MiB (18%)
Title                       : Original, E- 5.1 640 Kbps
Language                    : English
Service kind                : Complete Main
Default                     : Yes
Forced                      : No

Text #1
ID                          : 3
Format                      : UTF-8
Codec ID                    : S_TEXT/UTF8
Codec ID/Info               : UTF-8 Plain Text
Duration                    : 42 min 0 s
Bit rate                    : 95 b/s
Count of elements           : 613
Stream size                 : 29.4 KiB (0%)
Title                       : Ukr Full [t.me/subautumn], edited by igor911
Language                    : Ukrainian
Default                     : Yes
Forced                      : Yes

Text #2
ID                          : 4
Format                      : UTF-8
Codec ID                    : S_TEXT/UTF8
Codec ID/Info               : UTF-8 Plain Text
Duration                    : 42 min 23 s
Bit rate                    : 74 b/s
Count of elements           : 800
Stream size                 : 23.1 KiB (0%)
Title                       : Eng SDH
Language                    : English
Default                     : No
Forced                      : No


Джерело: &



Золотий реліз (завантажене не впливає на рейтинг)
 Трекер:    Зареєстрований   

Завантажити / скачати серіал українською



відео для новачків



 Зареєстрований:   2019-02-28 22:55
 Розмір:   15.56 GB 
 Оцінка серіалу:   9.5/10 (Голосів: 24)
 ЗАЛИШАЙТЕСЬ ЯКОМОГА ДОВШЕ НА РОЗДАЧІ! ЗАВАНТАЖИВ САМ - ДАЙ ЗАВАНТАЖИТИ ІНШИМ.
   
Seriy100293 
VIP


З нами з: 17.08.11
Востаннє: 30.03.20
Повідомлень: 461

2018-10-16 19:12  
Супер! Може хтось візьметься за озвучення? Серіал справді вартий цього.
Wrestling Ukraine 
Частий відвідувач


З нами з: 10.09.17
Востаннє: 01.04.20
Повідомлень: 45

2018-10-16 19:54  
Ось, може підійдуть)




Patriot_ukr 
VIP


З нами з: 06.04.15
Востаннє: 29.03.20
Повідомлень: 2260

2018-10-17 12:12  
Wrestling Ukraine, шрифт не той і розтягнений по ширині. Виглядає вбого
anugama 
Частий відвідувач


З нами з: 15.02.10
Востаннє: 30.03.20
Повідомлень: 37

2018-10-18 20:54  
Після перегляду першої серії почув голос - дивись далі, дивись далі, дивись далі.....
Anonymous 







2019-01-20 12:08  
Seriy100293 написано:
Може хтось візьметься за озвучення?

З'явилось озвучення першої серії. Див. лінк на всі релізи в описі.

GlossaVK 
Свій


З нами з: 26.06.13
Востаннє: 31.03.20
Повідомлень: 73

2019-02-22 21:37  
Фільм чомусь не прокручується, жодна серія, і спотворена картинка. Витер і перезакачав, але те ж саме. В чому проблема?
Anonymous 







2019-02-22 21:49  
GlossaVK, спробуй іншим програвачем (рекомендую MPC-HC) або на іншому пристрої.
GlossaVK 
Свій


З нами з: 26.06.13
Востаннє: 31.03.20
Повідомлень: 73

2019-02-26 20:47  
Anonymous
Я прихильник стандартизації. Вже багато років, користуюсь KMP Player, який підтримує всі формати. Якщо щось не йде, то це вже проблема виставленого продукту. Можливо, краще зробити у звичайному форматі, якщо не йде той, що пропонується. Мене, відразу ж, насторожили додаткові аудіофайли в , які, за звичай, використовуються для старіших форматів. Так і відбулось.
Перша серія мене зацікавила, з іншої закачки, тому, був би вдячний за оновлення роздачі в 720р у звичному форматі. Дякую за розуміння.

Anonymous 







2019-02-26 21:07  
GlossaVK, я перевіряю всі серії перед релізом на ПК - відео, звук, саби - зі всіма серіями все Ок.
GlossaVK написано:
користуюсь Player

отже проблема в тебе, спробуй оновити кодеки та скористатись іншим програвачем (гарантовано працює з k-lite codeck pack та MPC-HC)
GlossaVK написано:
у звичайному форматі

Це ж який?
GlossaVK написано:
насторожили додаткові аудіофайли в

немає там ніяких додаткових аудіофайлів.

Додано через 2 хвилини 16 секунд:

до того ж файли беруться з рарбг і лише додаються редаговані укр.саби - там їх вантажать і перевіряють тисячі користувачів - і в них теж все Ок.

Додано через 2 хвилини 33 секунди:

єдине, де може бути проблема - у власників якихось "залізяк" без підтримки чи з "кривою" підтримкою E- (покращеного ) - для них є саби окремо - хай прикручують до своїх ріпів.

denixx 
Відео Гуртом - підтримка та поширення
Відео Гуртом - підтримка та поширення


З нами з: 04.01.17
Востаннє: 28.03.20
Повідомлень: 104

2019-02-27 21:21  
GlossaVK
VLC 3.0.6 - усе "прокручується".

Що то за "Вже багато років, користуюсь KMP Player"?
Можливо, KMPlayer? Якого року випуску файл, що ви використовуєте для його встановлення?
Та й плеєр цей є у двох варіаціях: корейський KMPlayer та російська адаптація The KMPlayer.

Стандартизація - то гарно, звісно, але ж це зовсім не значить, що не треба ставити оновлень.

Anonymous 







2019-02-28 22:58  
+ 16-а серія.
Anonymous 







2019-03-01 12:34  
Цитата:
+ 16а серія

Виявилось, що 16 серія була останньою у першому сезоні, хоча на imdb раніше було вказано 18 серій. Отже, повний сезон.

leicheman 
Відео Гуртом - фільмокрай
Відео Гуртом - фільмокрай


З нами з: 03.07.14
Востаннє: 01.04.20
Повідомлень: 4563

2019-08-12 13:53  
2а серія після десь 17-18 хвилина субтитри поспішають (мабуть через різницю до якого відео робили переклад, чорних екранів)

Далі буду дивитися, напишу чи у інших серіях є таке чи ні.

А серіал зацікавив. Щось типу 4400 .

Anonymous 







2019-08-12 16:05  
leicheman написано:
2а серія після десь 17-18 хвилина субтитри поспішають

так, є таке, але не критично і не більше хвилини-півтори.

leicheman 
Відео Гуртом - фільмокрай
Відео Гуртом - фільмокрай


З нами з: 03.07.14
Востаннє: 01.04.20
Повідомлень: 4563

2019-08-12 19:57  
Anonymous написано:
і не більше хвилини-півтори.

Нажаль до кінця серії поспішають. Іноді вирівнюється на кілька фраз і потім знову.

uklrtelekom 
Новенький


З нами з: 23.10.14
Востаннє: 30.03.20
Повідомлень: 1

2020-02-25 20:01  
Посідуте, пліз.
Ваш часовий пояс: GMT + 2 Години

Нова тема   Відповісти