Американський психопат / American Psycho (2000) 1080 [Open Matte] Ukr/Eng | Sub Eng

Нові коментарі

Нова тема   Відповісти
Автор Повідомлення
staf777 
Відео Гуртом - підтримка та поширення
Відео Гуртом - підтримка та поширення


З нами з: 16.11.16
Востаннє: 14.12.19
Повідомлень: 3062

2018-10-16 00:17  
Американський психопат / American Psycho (2000) 1080 [Open Matte] Ukr/Eng | Sub Eng

Американський психопат / American Psycho (2000) 1080 [Open Matte] Ukr/Eng | Sub Eng


Жанр: трилер, драма
Країна: Канада, США



Кінокомпанія: Am Psycho Productions, Edward R. Pressman Film, Lions Gate Films
Режисер: Мері Гаррон
Актори: Крістіан Бейл, Джастін Теру, Джош Лукас, Біл Сейдж, Різ Візерспун, Саманта Метіс, Метт Рос, Джаред Лето, Віллем Дефо, Хлоя Севіньї та інші

Сюжет:
Вдень він нічим не відрізняється від оточуючих, і в натовпі ви не звертаєте на нього уваги. Але вночі цей вихований громадянин перетворюється на витонченого вбивцю, що тероризує спляче місто.
Сучасний дикун, що зневажає закони людства, харчується лише спопеляючим полум'ям своєї ненависті, яка зростає з кожним новим злочином. Лавина жаху наближається до критичної межі. Невдовзі настане момент, коли її вже не можна буде зупинити.


Тривалість: 01:42:40
Якість: 1080
Відео:
кодек:
розмір кадру: 1920x1080
бітрейт: 9602 кб/с

Аудіо # 1:
мова: українська
переклад: багатоголосий закадровий
кодек: 5.1
бітрейт: 448 кб/с

Аудіо # 2:
мова: англійська
переклад: оригінал
кодек: 5.1
бітрейт: 640 кб/с

Джерело озвучення:


Субтитри:
мова: англійська
тип: програмні (м'які)
формат: *.srt
Info
General
Unique ID : 256437567789241905508417542831849990918 (0xC0EC143DBE09ADA3ABA1D74FD1FDEB06)
Complete name : N:\Фільми HD\Трилер\American Psycho (2000) 1080p [UKR_ENG] [Hurtom].
Format :
Format version : Version 4 / Version 2
File size : 7.63 GiB
Duration : 1 h 42 min
Overall bit rate : 10.6 Mb/s
Movie name : American Psycho (2000) 1080p [UKR_ENG] [Hurtom]
Encoded date : UTC 2018-10-15 21:32:59
Writing application : v24.0.0 ('Beyond The Pale') 64-bit
Writing library : libebml v1.3.6 + v1.4.9
Cover : Yes
Attachments : cover.jpg

Video
ID : 1
Format : AVC
Format/Info : Advanced Video Codec
Format profile : [email protected]
Format settings : CABAC / 4 Ref Frames
Format settings, CABAC : Yes
Format settings, ReFrames : 4 frames
Codec ID : V_MPEG4/ISO/AVC
Duration : 1 h 42 min
Bit rate : 9 602 kb/s
Width : 1 920 pixels
Height : 1 080 pixels
Display aspect ratio : 16:9
Frame rate mode : Constant
Frame rate : 23.976 FPS
Color space : YUV
Chroma subsampling : 4:2:0
Bit depth : 8 bits
Scan type : Progressive
Bits/(Pixel*Frame) : 0.193
Stream size : 6.85 GiB (90%)
Writing library : core 65 r997M 65b837f
Encoding settings : cabac=1 / ref=4 / deblock=1:-3:-3 / analyse=0x3:0x133 / me=esa / subme=9 / psy_rd=1.0:0.0 / mixed_ref=1 / me_range=32 / chroma_me=1 / trellis=2 / 8x8dct=1 / cqm=2 / deadzone=21,11 / chroma_qp_offset=-2 / threads=12 / nr=0 / decimate=0 / mbaff=0 / bframes=6 / b_pyramid=1 / b_adapt=2 / b_bias=0 / direct=3 / wpredb=1 / keyint=250 / keyint_min=25 / scenecut=40(pre) / rc=2pass / bitrate=9602 / ratetol=1.0 / qcomp=0.60 / qpmin=10 / qpmax=51 / qpstep=4 / cplxblur=20.0 / qblur=0.5 / ip_ratio=1.40 / pb_ratio=1.30 / aq=1:1.00
Language : English
Default : Yes
Forced : No

Audio #1
ID : 2
Format : AC-3
Format/Info : Audio Coding 3
Codec ID : A_AC3
Duration : 1 h 42 min
Bit rate mode : Constant
Bit rate : 448 kb/s
Channel(s) : 6 channels
Channel positions : Front: L C R, Side: L R, LFE
Sampling rate : 48.0 kHz
Frame rate : 31.250 FPS (1536 SPF)
Bit depth : 16 bits
Compression mode : Lossy
Stream size : 329 MiB (4%)
Title : [Ukr-Mvo-K1]
Language : Ukrainian
Service kind : Complete Main
Default : Yes
Forced : Yes

Audio #2
ID : 3
Format : AC-3
Format/Info : Audio Coding 3
Codec ID : A_AC3
Duration : 1 h 42 min
Bit rate mode : Constant
Bit rate : 640 kb/s
Channel(s) : 6 channels
Channel positions : Front: L C R, Side: L R, LFE
Sampling rate : 48.0 kHz
Frame rate : 31.250 FPS (1536 SPF)
Bit depth : 16 bits
Compression mode : Lossy
Stream size : 470 MiB (6%)
Language : English
Service kind : Complete Main
Default : No
Forced : No

Text
ID : 4
Format : UTF-8
Codec ID : S_TEXT/UTF8
Codec ID/Info : UTF-8 Plain Text
Duration : 1 h 37 min
Bit rate : 62 b/s
Count of elements : 1170
Stream size : 44.2 KiB (0%)
Language : English
Default : No
Forced : No

Menu
00:00:00.000 : en:00:00:00.000
00:04:40.280 : en:00:04:40.280
00:09:04.711 : en:00:09:04.711
00:14:32.747 : en:00:14:32.747
00:18:09.839 : en:00:18:09.839
00:20:06.372 : en:00:20:06.372
00:24:46.694 : en:00:24:46.694
00:31:15.957 : en:00:31:15.957
00:37:30.874 : en:00:37:30.874
00:47:00.735 : en:00:47:00.735
00:56:37.728 : en:00:56:37.728
01:04:39.501 : en:01:04:39.501
01:06:45.418 : en:01:06:45.418
01:13:26.819 : en:01:13:26.819
01:15:57.678 : en:01:15:57.678
01:18:13.606 : en:01:18:13.606
01:24:40.742 : en:01:24:40.742
01:36:46.384 : en:01:36:46.384
01:41:45.683 : en:01:41:45.683
Скріншоти



Український звук - МАКАРОННІК, Romario_O
Робота зі звуком - krigg070
Локалізація постера - bilenkuyboy

Джерело: &
Особиста оцінка: 0 - не дивився


Срібний реліз (на рейтинг впливає 50% завантаженого)
 Трекер:    Зареєстрований   

Завантажити / скачати фільм українською



відео для новачків



 Зареєстрований:   2018-10-16 07:10
 Розмір:   7.63 GB 
 Оцінка фільму:   7.8/10 (Голосів: 8)
   
DeMKOV_712 
Новенький


З нами з: 24.09.14
Востаннє: 13.12.19
Повідомлень: 11

2018-10-18 01:32  
Добре, але дуже дивне кіно🤔
Ваш часовий пояс: GMT + 2 Години

Нова тема   Відповісти