Зак Шторм / Zak Storm (Сезон 1, 13 серії з 39) (2015) 1080p

Нові коментарі

Нова тема   Відповісти
Автор Повідомлення
sergiyko.5 
Забанено
Забанено


З нами з: 25.02.16
Востаннє: 29.10.20
Повідомлень: 3648

2018-10-15 21:37  
Зак Шторм / Zak Storm (Сезон 1) (2015) 1080p


Зак Шторм / Zak Storm (Сезон 1, 13 серії з 39) (2015) 1080p

Жанр: Дитячий, пригоди
Країна: США, Франція, Південна Корея, Індонезія

Сюжет:
Мультсеріал про дивовижні пригоди юного підлітка-серфера Зака, дуже впертого і заповзятливого хлопця, який потрапив у Бермудський трикутник, намагаючись виграти змагання з серфінгу. Опинившись у магічному місці, що зберігає безліч таємниць, Зак заволодів мечем, що трансформував його в героя, здатного протистояти будь-яким атакам і перешкоджати будь-якій небезпеці, що з'являється в просторі Семи Морів, всередині Бермудського трикутника. Зак бере на себе керівництво екіпажем судна. Разом з командою, що складається з балакучого меча, першого помічника принцеси Атлантін, тугодума Вікінга з важким кулаком, нервового космічного мандрівника і маленького веселуна-полтергейста, юний серфер вирушає на пошуки пригод, битиметься із лиходієм Скалліваром і постарається вибратися з Бермудського трикутника. Але чи зможе він повернутися додому?




Тривалість: 1 серія: 23:35, загалом 13 серія з 39
Якість:

Відео: кодек: розмір кадру: 1920 х 1080 бітрейт: 4200 кб/с
Аудіо: мова: українська переклад: професійний дубльований кодек: 2.0 бітрейт: 192 кб/с / Студія 1+1 /
Перелік серій:

01 Origins.Part 1

23 Пригоди кличуть - Call to Adventure
24 Мудрець - The Wiseman

27 Стомлення - Burn Out

30 Лють Блікс - Wrath of Blix
31 Тіло Калабрасса -
32 Острів загублених дітей -
33 Тана Лост -
34 Поміж зірок - Between Stars
35 Дружба вікінгів - Viking Connexion
36 Двійник - The Stowaway
37 Вибір Зака
38 Втрачена куля
39 Останній охоронець
Про файл:
General
Unique ID : 175331863782297256597568789681419574961 (0x83E7B04C7030A70617508A4FD61FDEB1)
Complete name : E:\MULTFILMS\Zak Storm S01 1080p \S01E23.Call to Adventure.1080p..
Format :
Format version : Version 4
File size : 708 MiB
Duration : 23 min 33 s
Overall bit rate : 4 199 kb/s
Movie name : Zak Storm S01 1080p by sergiyko
Encoded date : UTC 2018-10-15 18:27:04
Writing application : v27.0.0 ('Metropolis') 64-bit
Writing library : libebml v1.3.6 + v1.4.9

Video
ID : 1
Format : AVC
Format/Info : Advanced Video Codec
Format profile : [email protected]
Format settings : CABAC / 6 Ref Frames
Format settings, CABAC : Yes
Format settings, ReFrames : 6 frames
Codec ID : V_MPEG4/ISO/AVC
Duration : 23 min 33 s
Bit rate : 3 941 kb/s
Width : 1 920 pixels
Height : 1 080 pixels
Display aspect ratio : 16:9
Frame rate mode : Constant
Frame rate : 25.000 FPS
Color space : YUV
Chroma subsampling : 4:2:0
Bit depth : 8 bits
Scan type : Progressive
Bits/(Pixel*Frame) : 0.076
Stream size : 664 MiB (94%)
Title : S01E23.Call to Adventure
Language : English
Default : Yes
Forced : No

Audio
ID : 2
Format : LC
Format/Info : Advanced Audio Codec Low Complexity
Codec ID : A_AAC-2
Duration : 23 min 33 s
Bit rate : 256 kb/s
Channel(s) : 2 channels
Channel layout : L R
Sampling rate : 44.1 kHz
Frame rate : 43.066 FPS (1024 SPF)
Compression mode : Lossy
Stream size : 43.1 MiB (6%)
Title : DUB | ПлюсПлюс
Language : Ukrainian
Default : Yes
Forced : No
Скріншоти:



Автор запису: sergiyko


Бронзовий реліз (на рейтинг впливає 75% завантаженого)
 Трекер:    Зареєстрований   

Завантажити / скачати мультфільм українською



відео для новачків



 Зареєстрований:   2018-10-24 21:46
 Розмір:   8.3 GB 
 Оцінка мультсеріалу:   10/10 (Голосів: 4)
   
sergiyko.5 
Забанено
Забанено


З нами з: 25.02.16
Востаннє: 29.10.20
Повідомлень: 3648

2018-10-24 21:46  
Додав 34-39 епізоди.
andros507 
VIP


З нами з: 15.09.10
Востаннє: 22.04.21
Повідомлень: 327

2018-10-24 22:44  
sergiyko.5 написано:
Додав 34-39 епізоди.

Оновите не HD реліз?

sergiyko.5 
Забанено
Забанено


З нами з: 25.02.16
Востаннє: 29.10.20
Повідомлень: 3648

2018-10-24 22:52  
andros507
поки що нічим, не всі серії записані. І плутанина вийшла з порядком серій, зараз прийдеться змінювати нумерацію згідно wiki.

andros507 
VIP


З нами з: 15.09.10
Востаннє: 22.04.21
Повідомлень: 327

2018-10-24 22:55  
sergiyko.5 написано:
поки що нічим, не всі серії записані. І плутанина вийшла з порядком серій, зараз прийдеться змінювати нумерацію згідно wiki.

Хіба? 26 серій попереднього релізу+13 серій нового=усі 39 серій.

Ваш часовий пояс: GMT + 2 Години

Нова тема   Відповісти