Менді / Mandy (2018) 720p Ukr/Eng

Нові коментарі

Нова тема   Відповісти
Автор Повідомлення
dragheart 
Частий відвідувач


З нами з: 27.01.16
Востаннє: 19.04.19
Повідомлень: 36

2018-10-15 18:27  
Менді / Mandy (2018) 720p Ukr/Eng

Менді / Mandy (2018) 720p Ukr/Eng
Альтернативний постер:

Менді / Mandy (2018) 720p Ukr/Eng


Жанр: артхаус, трилер, жахи
Країна: США, Бельгія



Кінокомпанія: SpectreVision, Umedia, Legion M
Режисер: Панос Косматос
Актори: Ніколас Кейдж, Андреа Райзборо, Лайнас Роуч, Нед Деннехі

Сюжет:
Події фільму розгортаються в 1983 році. Це історія Реда Міллера - звичайного дроворуба, який жив зі своєю коханою Менді в лісі недалеко від озера. Але їх ідеальне життя було зруйновано, коли в їхній будинок несподівано вторглися прихильники жахливого культу. За дорученням свого лідера Джеремайя вони накачали Менді сильними наркотиками та провели ритуальне спалення, а Реда піддали жорстоким тортурам і майже вбили. Засліплений бажанням помсти, Ред озброюється величезною сокирою і відправляється по сліду культистів, поступово впадаючи в криваве безумство.


Тривалість: 02:01:10
Якість: 720p
Відео:
кодек:
розмір кадру: 1280 х 720
бітрейт: 5 000 кб/с

Аудіо # 1:
мова: українська
переклад: двоголосий закадровий
кодек: 2.0
бітрейт: 224 кб/с

Аудіо # 2:
мова: англійська
переклад: оригінал
кодек: 5.1
бітрейт: 512 кб/с

Джерело озвучення:
DubLiCat
Сторінка на FaceBook

За переклад дякуємо ukrrku
Info

General
Unique ID : 125049485558785489214860625695242474955 (0x5E13A7A601552B4FE616F5985FB855CB)
Complete name : F:\Проект\Готовые проекты\Mandy\Mandy.2018..
Format :
Format version : Version 4 / Version 2
File size : 4.82 GiB
Duration : 2h 1mn
Overall bit rate : 5 690 Kbps
Encoded date : UTC 2018-10-15 14:12:46
Writing application : v23.0.0 ('The Bride Said No') 64-bit
Writing library : libebml v1.3.6 + v1.4.9
DURATION : 02:01:12.672000000
NUMBER_OF_FRAMES : 227271
NUMBER_OF_BYTES : 203634816
_STATISTICS_WRITING_APP : v23.0.0 ('The Bride Said No') 64-bit
_STATISTICS_WRITING_DATE_UTC : 2018-10-15 14:12:46
_STATISTICS_TAGS : BPS DURATION NUMBER_OF_FRAMES NUMBER_OF_BYTES

Video
ID : 1
Format : AVC
Format/Info : Advanced Video Codec
Format profile : [email protected]
Format settings, CABAC : Yes
Format settings, ReFrames : 1 frame
Codec ID : V_MPEG4/ISO/AVC
Duration : 2h 1mn
Bit rate : 5 000 Kbps
Width : 1 280 pixels
Height : 720 pixels
Display aspect ratio : 16:9
Frame rate mode : Variable
Frame rate : 23.976 fps
Color space : YUV
Chroma subsampling : 4:2:0
Bit depth : 8 bits
Scan type : Progressive
Bits/(Pixel*Frame) : 0.226
Stream size : 4.10 GiB (85%)
Writing library : core 129
Encoding settings : cabac=1 / ref=1 / deblock=1:0:0 / analyse=0x1:0x131 / me=dia / subme=2 / psy=1 / psy_rd=1.00:0.00 / mixed_ref=0 / me_range=16 / chroma_me=1 / trellis=0 / 8x8dct=0 / cqm=0 / deadzone=21,11 / fast_pskip=1 / chroma_qp_offset=0 / threads=4 / lookahead_threads=1 / sliced_threads=0 / nr=0 / decimate=1 / interlaced=0 / bluray_compat=0 / constrained_intra=0 / bframes=0 / weightp=2 / keyint=250 / keyint_min=25 / scenecut=40 / intra_refresh=0 / rc_lookahead=40 / rc=abr / mbtree=1 / bitrate=5000 / ratetol=1.0 / qcomp=0.60 / qpmin=10 / qpmax=51 / qpstep=4 / ip_ratio=1.41 / aq=1:1.00
Default : Yes
Forced : No

Audio #1
ID : 2
Format : AC-3
Format/Info : Audio Coding 3
Mode extension : CM (complete main)
Codec ID : A_AC3
Duration : 2h 1mn
Bit rate mode : Constant
Bit rate : 224 Kbps
Channel(s) : 2 channels
Channel positions : Front: L R
Sampling rate : 48.0 KHz
Bit depth : 16 bits
Compression mode : Lossy
Stream size : 194 MiB (4%)
Language : Ukrainian
Default : Yes
Forced : No

Audio #2
ID : 3
Format : AC-3
Format/Info : Audio Coding 3
Mode extension : CM (complete main)
Codec ID : A_AC3
Duration : 2h 1mn
Bit rate mode : Constant
Bit rate : 512 Kbps
Channel(s) : 6 channels
Channel positions : Front: L C R, Side: L R, LFE
Sampling rate : 48.0 KHz
Bit depth : 16 bits
Compression mode : Lossy
Stream size : 444 MiB (9%)
Language : English
Default : No
Forced : No
Скріншоти


Джерело: &
Особиста оцінка: 8 - мені сподобалося


Авторський реліз (завантажувати можна без реєстрації)
 Трекер:    Зареєстрований   

Завантажити / скачати фільм українською



відео для новачків



 Зареєстрований:   2018-10-15 18:27
 Розмір:   4.82 GB 
 Оцінка фільму:   8.2/10 (Голосів: 22)
   
Інші релізи
   Менді / Mandy (2018) Eng | Sub Ukr ukrrku  8 / 0   1.58 GB   2018-09-18 09:04 
Estranded 
VIP


З нами з: 09.02.14
Востаннє: 20.04.19
Повідомлень: 1313

2018-10-15 19:27  
Можна семпл?
Wowatorrent 
Поважний учасник


З нами з: 24.03.16
Востаннє: 20.04.19
Повідомлень: 163

2018-10-15 22:50  
Картинка якась розтягнута, чи це так повинно бути?

Додано через 7 хвилин 46 секунд:

На UAfilm нормально.

Electroz 
Відео Гуртом - підтримка та поширення
Відео Гуртом - підтримка та поширення


З нами з: 18.09.14
Востаннє: 20.04.19
Повідомлень: 3265

2018-10-16 14:58  
Wowatorrent написано:
Картинка якась розтягнута, чи це так повинно бути?

Скоріше за все неправильно зроблено ріп, бо не збережено пропорції.

kpomed 
Новенький


З нами з: 12.10.13
Востаннє: 20.04.19
Повідомлень: 19

2018-10-16 15:44  
Зависокий рейтинг як для Кейджа )
casper101 
VIP


З нами з: 03.12.09
Востаннє: 19.04.19
Повідомлень: 393

2018-10-20 23:36  
ну це і фільм, капець.
Wensun 
Свій


З нами з: 20.01.09
Востаннє: 17.04.19
Повідомлень: 128

2018-10-22 19:37  
витримав 20 хв
pavivo 
Новенький


З нами з: 08.11.09
Востаннє: 18.04.19
Повідомлень: 8

2018-10-26 11:30  
Треш в стилі 80-х
igor911 
Відео Гуртом
Відео Гуртом


З нами з: 18.01.08
Востаннє: 20.04.19
Повідомлень: 12307

2018-11-08 16:42  
з 22 листопада фільм в українському кінопрокаті.
eevviill 
Свій


З нами з: 13.08.08
Востаннє: 18.04.19
Повідомлень: 130

2018-11-13 19:57  
Тверда пйатірка Wide grin
reiser44 
Свій


З нами з: 12.11.14
Востаннє: 20.04.19
Повідомлень: 77

2018-11-17 17:44  
Схоже весь бюджет фільму був витрачений на закупку забористої трави.
O_omarella! 
Свій


З нами з: 14.06.13
Востаннє: 13.04.19
Повідомлень: 116

2018-11-18 14:00  
reiser44
дякую за комент! і настрій підняли і час згаяли)))

reiser44 
Свій


З нами з: 12.11.14
Востаннє: 20.04.19
Повідомлень: 77

2018-11-18 22:51  
O_omarella!
- Та, будь ласка, шановний! Звертайтеся ще. Ніц не шкода. ))

bambulla 
Відео Гуртом - запис з ТБ
Відео Гуртом - запис з ТБ


З нами з: 05.06.12
Востаннє: 12.04.19
Повідомлень: 78

2018-11-25 22:14  
Буде Український дубляж?
igor911 
Відео Гуртом
Відео Гуртом


З нами з: 18.01.08
Востаннє: 20.04.19
Повідомлень: 12307

2018-11-25 22:29  
bambulla написано:
Буде український дубляж?

Навряд, у кінопрокаті зараз іде з субтитрами.

Igorban 
Свій


З нами з: 24.10.17
Востаннє: 19.04.19
Повідомлень: 93

2018-12-14 16:36  
Під час перегляду фільму, мені у голові виринало "Лінчлінчлінчлінч"... таке враження,що це містечко знаходиться десь неподалеку Твін Піксу, звідки й втекли напевно сектантиWide grin
В цілому, фільм чудовий, а за ламповість великий плюс.

tgb 
Новенький


З нами з: 31.08.12
Востаннє: 15.04.19
Повідомлень: 4

2019-01-02 18:45  
коротко. фільм - лайно. не витрачайте час
Ваш часовий пояс: GMT + 2 Години

Нова тема   Відповісти