Мелісса та Джої (Сезон 2) / Melissa & Joey (Season 2) (2012) 720p Ukr/Eng

Нові коментарі

Нова тема   Відповісти
Автор Повідомлення
Anonymous 







2018-10-15 13:51  


Мелісса та Джої (Сезон 2) / Melissa & Joey (Season 2) (2012) 720p Ukr/Eng

Мелісса та Джої (Сезон 2) / Melissa & Joey (Season 2) (2012) 720p Ukr/Eng


Жанр: комедія
Країна: США



Кінокомпанія: Hartbreak Films
Режисер: Девід Кендалл (David Kendall), Боб Янг (Bob Young) та інші
Актори: Мелісса Джоан Харт (Melissa Joan Hart), Джозеф Лоуренс (Joey Lawrence), Тейлор Спрейтлер (Taylor Spreitler), Нік Дж. Робінсон (Nick Robinson), Люсі ДеВіто (Lucy DeVito)

Сюжет:
Мелісса все своє життя присвятила політиці та домоглася чималих успіхів у своїй кар’єрі. Якось вона змушена була стати опікуном своїх племінників. Поєднувати важку роботу політика з вихованням дітей дуже складно, і вона розуміє, що сама може не впоратися. Джої – колишній співробітник чоловіка сестри Мелісси, який на даний момент залишився без роботи і не може знайти постійний заробіток. Він приймає пропозицію Мелісси і стає нянькою для її племінників …


Тривалість: 1 серія: ~20 хв. (цілком серій: 15)
Перелік серій
01) I Can Manage
02) If You Can't Stand the Heat
03) Good to Go
04) All Up in My Business
05) The Knockout
06) Breaking Up Is Hard to Do
07) Mixed Doubles
08) The Donor
09) Eat, Pray, Date
10) Pretty Big Liars
11) A Pair of Sneakers
12) Mother of All Problems
13) Wherefore Art Thou Lennox
14) From Russia with Love
15) Mel Marries Joe
Якість:
Відео:
кодек:
розмір кадру: 1280 х 720
бітрейт: ~4000 кб/с

Аудіо # 1:
мова: українська
переклад: багатоголосий закадровий
кодек: 2.0
бітрейт: 192 кб/с

Аудіо # 2:
мова: англійська
переклад: оригінал
кодек: 5.1
бітрейт: 384 кб/с

Джерело озвучення:
Info
General
Unique ID : 120979091146529888074778215766894798733 (0x5B03B9B5ACB728F45F0540314747678D)
Complete name : E:\Support\Melissa & Joey [, 720p, Ukr, Eng]\Season 2\Melissa & Joey. s02e01. I Can Manage.
Format :
Format version : Version 4
File size : 679 MiB
Duration : 20 min 32 s
Overall bit rate : 4 620 kb/s
Encoded date : UTC 2018-10-27 16:43:50
Writing application : v28.2.0 ('The Awakening') 64-bit
Writing library : libebml v1.3.6 + v1.4.9

Video
ID : 1
Format : AVC
Format/Info : Advanced Video Codec
Format profile : [email protected]
Format settings : 2 Ref Frames
Format settings, CABAC : No
Format settings, ReFrames : 2 frames
Codec ID : V_MPEG4/ISO/AVC
Duration : 20 min 32 s
Bit rate : 4 042 kb/s
Width : 1 280 pixels
Height : 720 pixels
Display aspect ratio : 16:9
Frame rate mode : Constant
Frame rate : 25.000 FPS
Color space : YUV
Chroma subsampling : 4:2:0
Bit depth : 8 bits
Scan type : Progressive
Bits/(Pixel*Frame) : 0.175
Stream size : 594 MiB (87%)
Language : English
Default : Yes
Forced : No
Color range : Limited
Color primaries : BT.709
Transfer characteristics : BT.709
Matrix coefficients : BT.709

Audio #1
ID : 2
Format : AC-3
Format/Info : Audio Coding 3
Commercial name : Dolby Digital
Codec ID : A_AC3
Duration : 20 min 32 s
Bit rate mode : Constant
Bit rate : 192 kb/s
Channel(s) : 2 channels
Channel layout : L R
Sampling rate : 48.0 kHz
Frame rate : 31.250 FPS (1536 SPF)
Bit depth : 16 bits
Compression mode : Lossy
Stream size : 28.2 MiB (4%)
Title : Новий
Language : Ukrainian
Service kind : Complete Main
Default : Yes
Forced : No

Audio #2
ID : 3
Format : AC-3
Format/Info : Audio Coding 3
Commercial name : Dolby Digital
Codec ID : A_AC3
Duration : 20 min 32 s
Bit rate mode : Constant
Bit rate : 384 kb/s
Channel(s) : 6 channels
Channel layout : L R C LFE Ls Rs
Sampling rate : 48.0 kHz
Frame rate : 31.250 FPS (1536 SPF)
Bit depth : 16 bits
Compression mode : Lossy
Stream size : 56.4 MiB (8%)
Language : English
Service kind : Complete Main
Default : No
Forced : No
Скріншоти
Джерело:
Особиста оцінка: 9 - класна комедія

Далі буде...



Бронзовий реліз (на рейтинг впливає 75% завантаженого)
 Трекер:    Зареєстрований   

Завантажити / скачати серіал українською



відео для новачків



 Зареєстрований:   2018-11-10 18:34
 Розмір:   10.03 GB 
 Оцінка серіалу:   9/10 (Голосів: 1)
   
bot 
робот


З нами з: 30.09.07
Востаннє: 26.05.05
Повідомлень: 20136

2018-10-15 13:51  
Тему перенесено з Серіали в HD до форуму Анонси релізів


Neytreenor

bot 
робот


З нами з: 30.09.07
Востаннє: 26.05.05
Повідомлень: 20136

2018-11-10 18:34  
Тему перенесено з Анонси релізів до форуму Серіали в HD


Neytreenor

Ваш часовий пояс: GMT + 2 Години

Нова тема   Відповісти