Рівердейл (Cезон 3) / Riverdale (Season 3) (2018) 720p Eng | sub Ukr

Нові коментарі

Нова тема   Відповісти
Автор Повідомлення
pskrm 
Свій


З нами з: 04.03.17
Востаннє: 22.05.19
Повідомлень: 91

2018-10-15 14:12  
Рівердейл (Cезон 3) / Riverdale (Season 3) (2018) 720p Eng | sub Ukr

Рівердейл (Cезон 3) / Riverdale (Season 3) (2018) 720p Eng | sub Ukr


Жанр: драма, детектив, кримінальний
Країна: США



Кінокомпанія: The CW
Режисер: Лі Толанд Кріґер, Роб Сайденґланц, Кевін Родні Салліван
Актори: Кей Джей Апа, Лілі Рейнхарт, Коул Спроус

Сюжет:
Серіал розповідає про старшокласника Арчі та його друзів, які вирішують дослідити невелике містечко Рівердейл,чим далі вони досліджують місто тим більше пізнають його похмурі таємниці.


Тривалість: 00:40:00
Перелік серій

01. Chapter Thirty-Six: Labor Day / Розділ тридцять шостий. День праці
02. Chapter Thirty-Seven: Fortune and Men's Eyes / Розділ тридцять сьомий. Вдача та його очі
03. Chapter Thirty-Eight: As Above, So Below / Розділ тридцять восьмий. Підпільний бар
04. Chapter Thirty-Nine: The Midnight Club / Розділ тридцять дев'ятий. Клуб Опівнічників
05. Chapter Forty: The Great Escape / Розділ сороковий. Велика втеча
06. Chapter Forty-one: Manhunter / Розділ сорок перший. Мисливець за людьми
07. Chapter Forty-two: The Man In Black / Розділ сорок другий. Чоловік у чорному
08. Chapter Forty-Three: Outbreak / Розділ сорок третій. Ураження
09. Chapter Forty-Four: No Exit / Розділ сорок четвертий. Виходу нема
10. Chapter Forty-Five: The Stranger / Розділ сорок п'ятий. Чужинець
11. Chapter Forty-six: The Red Dahlia / Розділ сорок шостий. Червона жоржина
12. Chapter Forty-seven: Bizarrodale / Розділ сорок сьомий. Двійник Рівердейла
13. Chapter Forty-Eight: Requiem for a Welterweight / Розділ сорок восьмий. Реквієм за боксером у середній вазі
14. Chapter Forty-Nine: Fire Walk With Me / Розділ сорок дев'ятий. Прогулянка вогнем
15. Chapter Fifty: American Dreams / Розділ п'ятидесятий. Американські мрії
16. Chapter Fifty-One: Big Fun / Розділ п'ятдесят перший. Час розваг
17. Chapter Fifty-two: The Raid / Розділ п'ятдесят другий. Рейд
18. Chapter Fifty-Three: Jawbreaker / Розділ п'ятдесят третій. Зубокришилка
19. Chapter Fifty-Four: Fear the Reaper / Розділ п'ятдесят четвертий. Бійтеся жнеця
20. Chapter Fifty-five: Prom Night / Розділ п'ятдесят п'ятий. Випускний
21. Chapter Fifty-Six: The Dark Secret of Harvest House / Розділ п'ятдесят шостий. Темна таємниця Ферми
22. Chapter Fifty-Seven: Apocalypto / Розділ п'ятдесят сьомий. Апокаліпсис
Якість:
Відео:
кодек:
розмір кадру: 1280 х 720
бітрейт: 3413 кб/с

Аудіо:
мова: англійська
переклад: оригінал
кодек: 2.0
бітрейт: 160 кб/с

Субтитри:
мова: українська
тип: програмні (м'які)
формат: *.srt

Субтитри :власний переклад
Medianfo

General
Complete name : G:\Files\TBA\Riverdale\Riverdale.Season.3\Riverdale.s03e01.mp4
Format : MPEG-4
Format profile : Base Media / Version 2
Codec ID : mp42 (isom/iso2/avc1/mp41)
File size : 1.05 GiB
Duration : 41 min 52 s
Overall bit rate mode : Variable
Overall bit rate : 3 581 kb/s
Encoded date : UTC 2018-10-15 00:19:37
Tagged date : UTC 2018-10-15 00:19:37
Writing application : HandBrake 1.1.2 2018090500

Video
ID : 1
Format : AVC
Format/Info : Advanced Video Codec
Format profile : [email protected]
Format settings : CABAC / 5 Ref Frames
Format settings, CABAC : Yes
Format settings, RefFrames : 5 frames
Codec ID : avc1
Codec ID/Info : Advanced Video Coding
Duration : 41 min 52 s
Bit rate : 3 413 kb/s
Width : 1 280 pixels
Height : 720 pixels
Display aspect ratio : 16:9
Frame rate mode : Variable
Frame rate : 23.976 (24000/1001) FPS
Minimum frame rate : 23.974 FPS
Maximum frame rate : 23.981 FPS
Color space : YUV
Chroma subsampling : 4:2:0
Bit depth : 8 bits
Scan type : Progressive
Bits/(Pixel*Frame) : 0.154
Stream size : 1 022 MiB (95%)
Writing library : core 155 r2901 7d0ff22
Encoding settings : cabac=1 / ref=5 / deblock=1:0:0 / analyse=0x1:0x111 / me=hex / subme=8 / psy=1 / psy_rd=1.00:0.00 / mixed_ref=1 / me_range=16 / chroma_me=1 / trellis=2 / 8x8dct=0 / cqm=0 / deadzone=21,11 / fast_pskip=1 / chroma_qp_offset=-2 / threads=6 / lookahead_threads=1 / sliced_threads=0 / nr=0 / decimate=1 / interlaced=0 / bluray_compat=0 / constrained_intra=0 / bframes=3 / b_pyramid=2 / b_adapt=1 / b_bias=0 / direct=3 / weightb=1 / open_gop=0 / weightp=2 / keyint=240 / keyint_min=24 / scenecut=40 / intra_refresh=0 / rc_lookahead=50 / rc=crf / mbtree=1 / crf=15.0 / qcomp=0.60 / qpmin=0 / qpmax=69 / qpstep=4 / vbv_maxrate=20000 / vbv_bufsize=25000 / crf_max=0.0 / nal_hrd=none / filler=0 / ip_ratio=1.40 / aq=1:1.00
Encoded date : UTC 2018-10-15 00:19:37
Tagged date : UTC 2018-10-15 00:19:37
Color range : Limited
Color primaries : BT.709
Transfer characteristics : BT.709
Matrix coefficients : BT.709
Codec configuration box : avcC

Audio
ID : 2
Format : LC
Format/Info : Advanced Audio Codec Low Complexity
Codec ID : mp4a-40-2
Duration : 41 min 52 s
Bit rate mode : Variable
Bit rate : 160 kb/s
Channel(s) : 2 channels
Channel layout : L R
Sampling rate : 48.0 kHz
Frame rate : 46.875 FPS (1024 SPF)
Compression mode : Lossy
Stream size : 48.0 MiB (4%)
Title : Stereo / Stereo
Default : Yes
Alternate group : 1
Encoded date : UTC 2018-10-15 00:19:37
Tagged date : UTC 2018-10-15 00:19:37

Text
ID : 3
Format : Timed Text
Muxing mode : sbtl
Codec ID : tx3g
Duration : 41 min 47 s
Bit rate mode : Variable
Bit rate : 121 b/s
Stream size : 36.9 KiB (0%)
Language : Ukrainian
Default : Yes
Forced : No
Alternate group : 3
Encoded date : UTC 2018-10-15 00:19:37
Tagged date : UTC 2018-10-15 00:19:37
Скріншоти


Джерело:
Особиста оцінка: 8 - мені сподобалося


Золотий реліз (завантажене не впливає на рейтинг)
 Трекер:    Зареєстрований   

Завантажити / скачати серіал українською



відео для новачків



 Зареєстрований:   2019-05-21 21:00
 Розмір:   18.49 GB 
 Оцінка серіалу:   9.9/10 (Голосів: 12)
   
pskrm 
Свій


З нами з: 04.03.17
Востаннє: 22.05.19
Повідомлень: 91

2018-11-04 15:09  
Реліз оновлено!

Додано 2-3 серії!

pskrm 
Свій


З нами з: 04.03.17
Востаннє: 22.05.19
Повідомлень: 91

2018-11-23 22:46  
Реліз оновлено!

Додано 4 серію!

pskrm 
Свій


З нами з: 04.03.17
Востаннє: 22.05.19
Повідомлень: 91

2018-11-29 00:16  
Реліз оновлено!

Додано 5 серію!

pskrm 
Свій


З нами з: 04.03.17
Востаннє: 22.05.19
Повідомлень: 91

2018-12-09 13:10  
Реліз оновлено!

Додано 6 серію!

pskrm 
Свій


З нами з: 04.03.17
Востаннє: 22.05.19
Повідомлень: 91

2018-12-14 00:17  
Реліз оновлено!

Додано 7 серію!

pskrm 
Свій


З нами з: 04.03.17
Востаннє: 22.05.19
Повідомлень: 91

2018-12-25 17:37  
Реліз оновлено!

Додано 8 серію!

[email protected] 
Новенький


З нами з: 28.05.15
Востаннє: 12.05.19
Повідомлень: 8

2019-01-13 15:39  
А коли наступні серії?
_hellisa 
Свій


З нами з: 26.02.17
Востаннє: 23.05.19
Повідомлень: 121

2019-01-13 15:42  
[email protected]
Зараз у серіалі перерва між половинами сезону, наступна серія виходить 17-го січня (протягом тижня з'явиться у нашому перекладі).

[email protected] 
Новенький


З нами з: 28.05.15
Востаннє: 12.05.19
Повідомлень: 8

2019-01-16 16:07  
Дякую!
Fogich 
Частий відвідувач


З нами з: 20.10.16
Востаннє: 19.05.19
Повідомлень: 31

2019-01-24 23:22  
Дуже чекаю на наступні серії!)
pskrm 
Свій


З нами з: 04.03.17
Востаннє: 22.05.19
Повідомлень: 91

2019-01-25 00:27  
Реліз оновлено!

Додано 9 серію!

Fogich 
Частий відвідувач


З нами з: 20.10.16
Востаннє: 19.05.19
Повідомлень: 31

2019-01-29 00:24  
Як я розумію, серії Там виходять раз в тиждень?
pskrm 
Свій


З нами з: 04.03.17
Востаннє: 22.05.19
Повідомлень: 91

2019-02-02 22:01  
Реліз оновлено!

Додано 10 серію!

pskrm 
Свій


З нами з: 04.03.17
Востаннє: 22.05.19
Повідомлень: 91

2019-02-12 23:23  
Реліз оновлено!

Додано 11 серію!

pskrm 
Свій


З нами з: 04.03.17
Востаннє: 22.05.19
Повідомлень: 91

2019-02-26 00:50  
Реліз оновлено!

Додано 12 серію!

_hellisa 
Свій


З нами з: 26.02.17
Востаннє: 23.05.19
Повідомлень: 121

2019-02-26 08:35  
Fogich
Саме так. І за тиждень після виходу з'являється у нашому перекладі.

pskrm 
Свій


З нами з: 04.03.17
Востаннє: 22.05.19
Повідомлень: 91

2019-03-12 23:47  
Реліз оновлено!

Додано 13 серію!

pskrm 
Свій


З нами з: 04.03.17
Востаннє: 22.05.19
Повідомлень: 91

2019-04-25 21:42  
Реліз оновлено!

Додано 14-16 серії!

pskrm 
Свій


З нами з: 04.03.17
Востаннє: 22.05.19
Повідомлень: 91

2019-05-09 21:11  
Реліз оновлено!

Додано 17-18 серії!

pskrm 
Свій


З нами з: 04.03.17
Востаннє: 22.05.19
Повідомлень: 91

2019-05-12 01:15  
Реліз оновлено!

Додано 19-20 серії!

leicheman 
Попереджень: 1
Попереджень: 1 


З нами з: 03.07.14
Востаннє: 23.05.19
Повідомлень: 3648

2019-05-13 15:20  
серіал з більш - менш нормального скотився вже до повної дурні. час його закривати.
_hellisa 
Свій


З нами з: 26.02.17
Востаннє: 23.05.19
Повідомлень: 121

2019-05-13 15:21  
leicheman
на жаль, продовжили на четвертий сезон.

Electroz 
Відео Гуртом - підтримка та поширення
Відео Гуртом - підтримка та поширення


З нами з: 18.09.14
Востаннє: 23.05.19
Повідомлень: 3380

2019-05-17 12:32  
pskrm написано:
sub UkrUkr

igor911 
Модератор відео


З нами з: 18.01.08
Востаннє: 23.05.19
Повідомлень: 12534

2019-05-17 13:34  
Electroz написано:
sub UkrUkr

виправив

pskrm 
Свій


З нами з: 04.03.17
Востаннє: 22.05.19
Повідомлень: 91

2019-05-21 21:02  
Реліз оновлено!

Додано 21-22 серії!

3 сезон повністю!

Приємного перегляду!

_hellisa 
Свій


З нами з: 26.02.17
Востаннє: 23.05.19
Повідомлень: 121

2019-05-21 21:11  
Наступні сезони перекладатися не будуть! Дякуємо, що дивилися та підтримували нас!

З повагою, команда ТВА.

Ваш часовий пояс: GMT + 2 Години

Нова тема   Відповісти