Останній портрет / Final Portrait (2017) 1080p Ukr/Eng

Нові коментарі

Нова тема   Відповісти
Автор Повідомлення
staf777 
Відео Гуртом - підтримка та поширення
Відео Гуртом - підтримка та поширення


З нами з: 16.11.16
Востаннє: 26.05.19
Повідомлень: 2384

2018-10-15 12:28  
Останній портрет / Final Portrait (2017) 1080p Ukr/Eng

Останній портрет / Final Portrait (2017) 1080p Ukr/Eng


Жанр: драма, біографічний, комедія
Країна: Велика Британія



Кінокомпанія: Olive Productions
Режисер: Стенлі Туччі
Актори: Армі Хаммер, Джеффрі Раш, Клемансо Поезі, Тоні Шелоуба, Джеймс Фолкнер, Сільві Тестю, Керрі Шейл, Філіп Сполл, Мартін Мейджер, Аттіла Дж. Керекеш

Сюжет:
Історія про кінець життя одного з найвидатніших художників ХХ століття - Альберто Джакометті. Париж початку 60-х, Альберто Джакометті оточений визнанням колег, інтересом коханки і ревнощами дружини. Втомлений від передбачуваного життя, художник знаходить спокій в компанії Джеймса Лорда - критика, що позує йому для нового портрета. Запланований портрет не готовий навіть через два тижні: двоє проводять багато часу разом, обговорюють мистецтво і роботу, дихають свіжим повітрям міста на Сені.


Тривалість: 01:29:51
Якість: 1080p
Відео:
кодек:
розмір кадру: 1920x804
бітрейт: 8500 кб/с

Аудіо # 1:
мова: українська
переклад: багатоголосий закадровий
кодек: 2.0
бітрейт: 192 кб/с

Аудіо # 2:
мова: англійська
переклад: оригінал
кодек: 5.1
бітрейт: 1509 кб/с

Субтитри: (вбудовані на французьку мову, на ці місця є українське озвучення)
мова: англійська
тип: вбудовані (жорсткі)
Info
General
Unique ID : 97259274695812218257826443696132367471 (0x492B7477A49122949F38AEFF5A78A46F)
Complete name : N:\Майбутні релізи\ Final Portrait (2017) 1080p [UKR_ENG] [Hurtom].
Format :
Format version : Version 4 / Version 2
File size : 6.40 GiB
Duration : 1 h 29 min
Overall bit rate : 10.2 Mb/s
Movie name : Final Portrait (2017) 1080p [UKR_ENG] [Hurtom]
Encoded date : UTC 2018-10-15 09:26:23
Writing application : v24.0.0 ('Beyond The Pale') 64-bit
Writing library : libebml v1.3.6 + v1.4.9
Cover : Yes
Attachments : cover.jpg

Video
ID : 1
Format : AVC
Format/Info : Advanced Video Codec
Format profile : [email protected]
Format settings : CABAC / 4 Ref Frames
Format settings, CABAC : Yes
Format settings, ReFrames : 4 frames
Codec ID : V_MPEG4/ISO/AVC
Duration : 1 h 29 min
Bit rate : 8 500 kb/s
Width : 1 920 pixels
Height : 804 pixels
Display aspect ratio : 2.40:1
Frame rate mode : Constant
Frame rate : 24.000 FPS
Color space : YUV
Chroma subsampling : 4:2:0
Bit depth : 8 bits
Scan type : Progressive
Bits/(Pixel*Frame) : 0.229
Stream size : 5.33 GiB (83%)
Writing library : core 142 r2479 dd79a61
Encoding settings : cabac=1 / ref=5 / deblock=1:-3:-3 / analyse=0x3:0x133 / me=tesa / subme=11 / psy=1 / psy_rd=1.00:0.00 / mixed_ref=1 / me_range=64 / chroma_me=1 / trellis=2 / 8x8dct=1 / cqm=0 / deadzone=21,11 / fast_pskip=1 / chroma_qp_offset=-2 / threads=12 / lookahead_threads=3 / sliced_threads=0 / nr=0 / decimate=1 / interlaced=0 / bluray_compat=0 / constrained_intra=0 / bframes=10 / b_pyramid=1 / b_adapt=2 / b_bias=0 / direct=3 / weightb=1 / open_gop=0 / weightp=0 / keyint=240 / keyint_min=24 / scenecut=40 / intra_refresh=0 / rc_lookahead=40 / rc=2pass / mbtree=1 / bitrate=8500 / ratetol=1.0 / qcomp=0.60 / qpmin=0 / qpmax=69 / qpstep=4 / cplxblur=20.0 / qblur=0.5 / vbv_maxrate=62500 / vbv_bufsize=78125 / nal_hrd=none / filler=0 / ip_ratio=1.40 / aq=1:1.00
Default : Yes
Forced : No
Color range : Limited
Color primaries : BT.709
Transfer characteristics : BT.709
Matrix coefficients : BT.709

Audio #1
ID : 2
Format : AC-3
Format/Info : Audio Coding 3
Codec ID : A_AC3
Duration : 1 h 29 min
Bit rate mode : Constant
Bit rate : 192 kb/s
Channel(s) : 2 channels
Channel positions : Front: L R
Sampling rate : 48.0 kHz
Frame rate : 31.250 FPS (1536 SPF)
Bit depth : 16 bits
Compression mode : Lossy
Delay relative to video : -83 ms
Stream size : 123 MiB (2%)
Title : [UA-MVO]
Language : Ukrainian
Service kind : Complete Main
Default : Yes
Forced : Yes

Audio #2
ID : 3
Format :
Format/Info : Digital Theater Systems
Codec ID : A_DTS
Duration : 1 h 29 min
Bit rate mode : Constant
Bit rate : 1 509 kb/s
Channel(s) : 6 channels
Channel positions : Front: L C R, Side: L R, LFE
Sampling rate : 48.0 kHz
Frame rate : 93.750 FPS (512 SPF)
Bit depth : 24 bits
Compression mode : Lossy
Delay relative to video : -83 ms
Stream size : 970 MiB (15%)
Language : English
Default : No
Forced : No
Скріншоти





За запис звуку з ТБ дякуємо пану Krigg070, за синхронізацію - пану drop_plz.
Джерело: &
Особиста оцінка: 0 - не дивився
Останній портрет / Final Portrait (2017) 1080p Ukr/Eng
Останній портрет / Final Portrait (2017) 1080p Ukr/Eng


 Трекер:    Зареєстрований   

Завантажити / скачати фільм українською



відео для новачків



 Зареєстрований:   2018-10-17 19:14
 Розмір:   6.4 GB 
 Оцінка фільму:   7.5/10 (Голосів: 8)
   
Інші релізи
   Останній портрет / Final Portrait (2017) 720p Ukr/Eng staf777  2 / 0   3.35 GB   2018-10-15 12:22 
   Останній портрет / Final Portrait (2017) Ukr/Eng drop_plz  4 / 0   1.54 GB   2018-10-15 10:18 
bot 
робот


З нами з: 30.09.07
Востаннє: 26.05.05
Повідомлень: 21393

2018-10-17 19:14  
Тему перенесено з Анонси релізів до форуму Фільми в HD


staf777

Ваш часовий пояс: GMT + 2 Години

Нова тема   Відповісти