Щасливе Солодке Життя / Happy Sugar Life (2018) 1080p Jap | sub Ukr

Нові коментарі

Нова тема   Відповісти
Автор Повідомлення
ihabi 
VIP


З нами з: 01.03.13
Востаннє: 07.07.19
Повідомлень: 300

2018-10-14 23:39  
Щасливе Солодке Життя / Happy Sugar Life (2018) 1080p Jap | sub Ukr

Щасливе Солодке Життя / Happy Sugar Life (2018) 1080p Jap | sub Ukr


Жанр: драма, жахи, шьонен
Країна: Японія



Кінокомпанія: Ezo'la
Режисер: Кусакава Кейдзо
Актори: Куно Місакі, Ханадзава Кана, Судзакі Ая, Ішікава Кайто, Ханаморі Юмірі, Хасеґава Ікумі

Сюжет:
Захоплива історія про щире кохання дівчинки Сато Мацудзаки, переплетене з жахами і кров’ю. Її переповнюють теплі почуття, коли вона спить з Нею в одному ліжку. Для неї це справжнє кохання. Якщо необхідно захистити ці почуття, дозволено усе: омана, крадіжка і навіть вбивство.


Тривалість: 00:24:27
Якість:
Відео:
кодек:
розмір кадру: 1920 х 1080
бітрейт: 2206 кб/с

Аудіо:
мова: японська
переклад: оригінал
кодек: 2.0
бітрейт: 125 кб/с

Субтитри:
мова: українська
тип: пререндерні
формат: *.

Переклад: Костянтин Hitler
Редакція: Enelira
Переклад пісень: Enelira
Постер: ihabi, Kisske

Джерело: MelodicVoiceStudio
Info
Format :
Format version : Version 4 / Version 2
File size : 414 MiB
Duration : 24 min 27 s
Overall bit rate : 2 369 kb/s
Encoded date : UTC 2018-10-14 19:44:11
Writing application : v25.0.0 ('Prog Noir') 64-bit
Writing library : libebml v1.3.6 + v1.4.9
Cover : Yes
Attachments : calibriz.ttf / comicbd.ttf / Jakob_DP_Normal.ttf / ofont.ru_Glasoor FF 4F.ttf / times.ttf / ArialRoundedMTProCyr-Bold_0.otf / Cocon_Bold.otf / calibri.ttf / calibrib.ttf / cover.jpg / OpenSans-Semibold.ttf

Video
ID : 1
Format : AVC
Format/Info : Advanced Video Codec
Format profile : [email protected]
Format settings : CABAC / 4 Ref Frames
Format settings, CABAC : Yes
Format settings, ReFrames : 4 frames
Codec ID : V_MPEG4/ISO/AVC
Duration : 24 min 27 s
Bit rate : 2 206 kb/s
Width : 1 920 pixels
Height : 1 080 pixels
Display aspect ratio : 16:9
Frame rate mode : Constant
Frame rate : 23.976 (24000/1001) FPS
Color space : YUV
Chroma subsampling : 4:2:0
Bit depth : 8 bits
Scan type : Progressive
Bits/(Pixel*Frame) : 0.044
Stream size : 386 MiB (93%)
Default : Yes
Forced : No
Color range : Limited
Color primaries : BT.709
Transfer characteristics : BT.709
Matrix coefficients : BT.709

Audio
ID : 2
Format : LC
Format/Info : Advanced Audio Codec Low Complexity
Codec ID : A_AAC-2
Duration : 24 min 26 s
Bit rate : 125 kb/s
Channel(s) : 2 channels
Channel layout : L R
Sampling rate : 48.0 kHz
Frame rate : 46.875 FPS (1024 SPF)
Compression mode : Lossy
Stream size : 21.9 MiB (5%)
Default : Yes
Forced : No

Text
ID : 3
Format :
Codec ID : S_TEXT/
Codec ID/Info : Advanced Sub Station Alpha
Duration : 24 min 26 s
Bit rate : 400 b/s
Count of elements : 530
Compression mode : Lossless
Stream size : 71.8 KiB (0%)
Title : Костянтин Hitler
Language : Ukrainian
Default : Yes
Forced : Yes
Скріншоти













Особиста оцінка: 7 - моїй подрузі сподобалося


Золотий реліз (завантажене не впливає на рейтинг)
 Трекер:    Зареєстрований   

Завантажити / скачати аніме українською



відео для новачків



 Зареєстрований:   2018-10-14 23:39
 Розмір:   5.04 GB 
 Оцінка аніме:   9.3/10 (Голосів: 3)
   
Konstantin_Exorcist 
Свій


З нами з: 18.11.14
Востаннє: 16.07.19
Повідомлень: 140

2018-10-15 00:07  
Алілуя! Торентик, рідненький! Нарешті цей проект завершено)
Зараз заплачу від щастя)

Додано через 45 секунд:

Ех, хороший серіальчик, не шкодую, що взявся)

11FrYkT 
Модератор відео


З нами з: 20.02.11
Востаннє: 16.07.19
Повідомлень: 6046

2018-10-21 16:47  
ihabi , мінімум 1 скрін має бути з сабами
ihabi 
VIP


З нами з: 01.03.13
Востаннє: 07.07.19
Повідомлень: 300

2018-10-23 00:31  
11FrYkT
Додав!

Ваш часовий пояс: GMT + 2 Години

Нова тема   Відповісти