Втеча з тюрми (Втеча з в'язниці) / The Escapist (2008) Remux 1080p 2xUkr/Eng | Sub Eng

Нові коментарі

Нова тема   Відповісти
Автор Повідомлення
IronBee 
Поважний учасник


З нами з: 08.02.10
Востаннє: 24.05.19
Повідомлень: 219

2018-10-14 14:48  
Втеча з тюрми (Втеча з в'язниці) / The Escapist (2008) Remux 1080p 2xUkr/Eng | Sub Eng

Втеча з тюрми (Втеча з в'язниці) / The Escapist (2008) Remux 1080p 2xUkr/Eng | Sub Eng


Жанр: драма, кримінальний, трилер
Країна: Велика Британія, Ірландія



Кінокомпанія: Irish Film Board, Parallel Film Productions Ltd., Picture Farm
Режисер: Руперт Ваят
Актори: Браян Кокс, Деміан Льюїс, Джозеф Файнс, Сеу Джордж, Ліам Каннінгем, Домінік Купер, Стівен Макінтош, Нед Деннегі

Сюжет:
Напевно, нікому не треба доводити, що життя у в'язниці - це суцільне пекло. Звичайно, і до нього можна спробувати пристосуватися - вибору все одно немає, залишається змиритися зі своєю участю. Особливо якщо суддя виніс вирок про довічне ув'язнення без права перегляду справи. Але Френк Перрі не бажає миритися з таким станом справ. За стіною у нього залишилася дочка, яка зараз смертельно хвора і дуже потребує допомоги. Заради дівчинки Френк готовий піти на все. І ось Перрі починає готувати план втечі.


Тривалість: 01:41:30
Якість: Remux
Відео:
кодек:
розмір кадру: 1920 х 1080
бітрейт: 23 Mб/с

Аудіо # 1:
мова: українська
переклад: багатоголосий закадровий | HTH
кодек: 2.0
бітрейт: 192 кб/с

Аудіо # 2:
мова: українська
переклад: двоголосий закадровий | 1+1
кодек: 2.0
бітрейт: 192 кб/с

Аудіо # 3:
мова: англійська
переклад: оригінал
кодек: -HD MA 5.1
бітрейт: 4185 кб/с

Субтитри:
мова: англійська
тип: програмні (м'які)
формат: *.srt
Info
General
Unique ID : 144251893726708230178558762563844330594 (0x6C85E7777108C393686C5C223F025462)
Complete name : E:\Films\Втеча з тюрми (Втеча з в’язниці) The Escapist (2008) Remux 2xUkrEng sub Eng[Hurtom].
Format :
Format version : Version 4
File size : 19.5 GiB
Duration : 1 h 41 min
Overall bit rate mode : Variable
Overall bit rate : 27.6 Mb/s
Encoded date : UTC 2018-10-13 14:58:31
Writing application : v27.0.0 ('Metropolis') 64-bit
Writing library : libebml v1.3.6 + v1.4.9

Video
ID : 1
Format : AVC
Format/Info : Advanced Video Codec
Format profile : [email protected]
Format settings : CABAC / 4 Ref Frames
Format settings, CABAC : Yes
Format settings, ReFrames : 4 frames
Format settings, GOP : M=3, N=18
Codec ID : V_MPEG4/ISO/AVC
Duration : 1 h 41 min
Bit rate mode : Variable
Bit rate : 23.0 Mb/s
Maximum bit rate : 35.0 Mb/s
Width : 1 920 pixels
Height : 1 080 pixels
Display aspect ratio : 16:9
Frame rate mode : Constant
Frame rate : 24.000 FPS
Standard : NTSC
Color space : YUV
Chroma subsampling : 4:2:0
Bit depth : 8 bits
Scan type : Progressive
Bits/(Pixel*Frame) : 0.462
Stream size : 16.3 GiB (83%)
Language : English
Default : Yes
Forced : No
Color range : Limited
Color primaries : BT.709
Transfer characteristics : BT.709
Matrix coefficients : BT.709

Audio #1
ID : 2
Format : AC-3
Format/Info : Audio Coding 3
Commercial name : Dolby Digital
Codec ID : A_AC3
Duration : 1 h 41 min
Bit rate mode : Constant
Bit rate : 192 kb/s
Channel(s) : 2 channels
Channel layout : L R
Sampling rate : 48.0 kHz
Frame rate : 31.250 FPS (1536 SPF)
Bit depth : 16 bits
Compression mode : Lossy
Stream size : 139 MiB (1%)
Title : 2.0 192 кб/с багатоголосий закадровий НТН
Language : Ukrainian
Service kind : Complete Main
Default : Yes
Forced : No

Audio #2
ID : 3
Format : AC-3
Format/Info : Audio Coding 3
Commercial name : Dolby Digital
Codec ID : A_AC3
Duration : 1 h 41 min
Bit rate mode : Constant
Bit rate : 192 kb/s
Channel(s) : 2 channels
Channel layout : L R
Sampling rate : 48.0 kHz
Frame rate : 31.250 FPS (1536 SPF)
Bit depth : 16 bits
Compression mode : Lossy
Stream size : 139 MiB (1%)
Title : 2.0 192 кб/с двоголосий закадровий 1+1
Language : Ukrainian
Service kind : Complete Main
Default : No
Forced : No

Audio #3
ID : 4
Format : XLL
Format/Info : Digital Theater Systems
Commercial name : -HD Master Audio
Codec ID : A_DTS
Duration : 1 h 41 min
Bit rate mode : Variable
Bit rate : 4 185 kb/s
Channel(s) : 6 channels
Channel layout : C L R Ls Rs LFE
Sampling rate : 48.0 kHz
Frame rate : 93.750 FPS (512 SPF)
Bit depth : 24 bits
Compression mode : Lossless
Stream size : 2.97 GiB (15%)
Language : English
Default : No
Forced : No

Text
ID : 5
Format : UTF-8
Codec ID : S_TEXT/UTF8
Codec ID/Info : UTF-8 Plain Text
Duration : 1 h 33 min
Bit rate : 18 b/s
Count of elements : 444
Stream size : 12.9 KiB (0%)
Language : English
Default : No
Forced : No

Menu
00:00:00.000 : en:Chapter 1
00:11:19.250 : en:Chapter 2
00:21:47.791 : en:Chapter 3
00:28:44.333 : en:Chapter 4
00:36:09.333 : en:Chapter 5
00:46:11.458 : en:Chapter 6
00:52:53.250 : en:Chapter 7
00:59:16.916 : en:Chapter 8
01:06:18.208 : en:Chapter 9
01:17:20.416 : en:Chapter 10
01:28:50.166 : en:Chapter 11
01:37:45.666 : en:Chapter 12
Скріншоти








За доріжку від НТН дякую п.: krigg070, Arsenfpu
За доріжку від 1+1 дякую п.: DеLight, dvorsky

Джерело: &
Особиста оцінка: 9 - мені сподобалося


Золотий реліз (завантажене не впливає на рейтинг)
 Трекер:    Зареєстрований   

Завантажити / скачати фільм українською



відео для новачків



 Зареєстрований:   2018-10-14 14:48
 Розмір:   19.55 GB 
 Оцінка фільму:   9.8/10 (Голосів: 4)
   
Ваш часовий пояс: GMT + 2 Години

Нова тема   Відповісти