Капітан / Le capitan (1960) Remux 1080p Ukr/Fre | Sub Fre

Нові коментарі

Нова тема   Відповісти
Автор Повідомлення
kryk-v.ya. 
VIP


З нами з: 14.02.14
Востаннє: 19.12.18
Повідомлень: 744

2018-10-13 09:45  
Капітан / Le capitan (1960) Remux 1080p Ukr/Fre | Sub Fre

Капітан / Le capitan (1960) Remux 1080p Ukr/Fre | Sub Fre


Жанр: екшн, пригодницький
Країна: Франція, Італія



Кінокомпанія: Da.Ma. Cinematografica, P.A.C., Pathé Consortium Cinéma
Режисер: Андре Юнебель
Актори: Жан Маре, Бурвіль, Ельза Мартінеллі, Пьєретт Бруно, Лізе Деламар, Анні Андерсон, Гі Делорм, Жаклін Порель, Жан-Поль Коклен, Рафаель Паторні, Роберт Порте, Жан Берґер

Сюжет:
Екранізація однойменного роману Мішеля Зевако. Дія фільму переносить нас в 1616 рік. Вбито Генріха IV. Його синові Людовику XIII ще немає і шістнадцяти. Тому його мати, королева Марія Медічі, призначає регентом Кончіні. Новий регент і сам не проти отримати трон і стати королем Франції. У цю інтригу також вплутується дворянин Франсуа, який щиро відданий малолітньому спадкоємцеві престолу. Він прагне зустрітися з ним, щоб попередити про небезпеку. Франсуа допомагають вуличний фокусник разом з веселуном Каголін ...


Тривалість: 01:44:48
Якість: Remux 1080p
Відео:
кодек:
розмір кадру: 1920 х 1080
бітрейт: 24 Mб/с

Аудіо # 1:
мова: українська
переклад: багатоголосий закадровий
кодек: 2.0
бітрейт: 192 кб/с

Аудіо # 2:
мова: французька
переклад: оригінал
кодек: -HD MA 5.1
бітрейт: 1958 кб/с

Джерело озвучення:


Субтитри:
мова: французька
тип: пререндерні
формат: *.pgs
Info
General
Unique ID : 223812654632263246295633293983758797417 (0xA860BFD5547ABD30059EAC445551CA69)
Complete name : E:\Le Capitan (1960) Remux 1080p.
Format :
Format version : Version 4 / Version 2
File size : 19.2 GiB
Duration : 1 h 44 min
Overall bit rate mode : Variable
Overall bit rate : 26.2 Mb/s
Encoded date : UTC 2018-10-12 20:14:26
Writing application : v25.0.0 ('Prog Noir') 64-bit
Writing library : libebml v1.3.6 + v1.4.9
Attachments : 0016.jpg

Video
ID : 1
Format : AVC
Format/Info : Advanced Video Codec
Format profile : [email protected]
Format settings : CABAC / 4 Ref Frames
Format settings, CABAC : Yes
Format settings, ReFrames : 4 frames
Format settings, GOP : M=3, N=24
Codec ID : V_MPEG4/ISO/AVC
Duration : 1 h 44 min
Bit rate mode : Variable
Bit rate : 24.0 Mb/s
Maximum bit rate : 34.0 Mb/s
Width : 1 920 pixels
Height : 1 080 pixels
Display aspect ratio : 16:9
Frame rate mode : Constant
Frame rate : 24.000 FPS
Standard : NTSC
Color space : YUV
Chroma subsampling : 4:2:0
Bit depth : 8 bits
Scan type : Progressive
Bits/(Pixel*Frame) : 0.482
Stream size : 17.6 GiB (92%)
Default : Yes
Forced : No
Color range : Limited
Color primaries : BT.709
Transfer characteristics : BT.709
Matrix coefficients : BT.709

Audio #1
ID : 2
Format : AC-3
Format/Info : Audio Coding 3
Commercial name : Dolby Digital
Codec ID : A_AC3
Duration : 1 h 44 min
Bit rate mode : Constant
Bit rate : 192 kb/s
Channel(s) : 2 channels
Channel layout : L R
Sampling rate : 48.0 kHz
Frame rate : 31.250 FPS (1536 SPF)
Bit depth : 16 bits
Compression mode : Lossy
Stream size : 144 MiB (1%)
Title : MVO-Тоніс
Language : Ukrainian
Service kind : Complete Main
Default : Yes
Forced : No

Audio #2
ID : 3
Format : XLL
Format/Info : Digital Theater Systems
Commercial name : -HD Master Audio
Codec ID : A_DTS
Duration : 1 h 44 min
Bit rate mode : Variable
Bit rate : 1 958 kb/s
Channel(s) : 6 channels
Channel layout : C L R Ls Rs LFE
Sampling rate : 48.0 kHz
Frame rate : 93.750 FPS (512 SPF)
Bit depth : 16 bits
Compression mode : Lossless
Stream size : 1.43 GiB (7%)
Title : Оригінал
Language : French
Default : No
Forced : No

Text
ID : 4
Format : PGS
Muxing mode : zlib
Codec ID : S_HDMV/PGS
Codec ID/Info : Picture based subtitle format used on BDs/HD-DVDs
Duration : 1 h 42 min
Bit rate : 26.5 kb/s
Count of elements : 1912
Stream size : 19.5 MiB (0%)
Language : French
Default : Yes
Forced : No
Скріншоти





Джерело: &
Особиста оцінка: 10 - без зайвих вагань рекомендую всім!

Подяка Tanat13 за запис з ТБ та п.ninenine за синхронізацію.


Золотий реліз (завантажене не впливає на рейтинг)
 Трекер:    Зареєстрований   

Завантажити / скачати фільм українською



відео для новачків



 Зареєстрований:   2018-10-13 09:45
 Розмір:   19.15 GB 
 Оцінка фільму:   8/10 (Голосів: 5)
   
Інші релізи
   Капітан / Le capitan (1960) AVC Ukr/Fre ninenine  3 / 0   1.67 GB   2016-01-21 17:57 
Oleksa9 
VIP


З нами з: 17.05.12
Востаннє: 19.12.18
Повідомлень: 323

2018-10-21 14:42  
, дякую !!

якщьо, щьо ...
блондинка -> білявка

Ваш часовий пояс: GMT + 2 Години

Нова тема   Відповісти