Мамма Міа! 2 / Mamma Mia! Here We Go Again (2018) 1080p Ukr/Eng | Sub Eng

Нові коментарі

Нова тема   Відповісти
Автор Повідомлення
staf777 
Попереджень: 1
Попереджень: 1 


З нами з: 16.11.16
Востаннє: 19.12.18
Повідомлень: 1940

2018-10-13 08:51  
Мамма Міа! 2 / Mamma Mia! Here We Go Again (2018) 1080p Ukr/Eng | Sub Eng

Мамма Міа! 2 / Mamma Mia! Here We Go Again (2018) 1080p Ukr/Eng | Sub Eng


Жанр: мюзикл, мелодрама, комедія
Країна: США, Велика Британія



Кінокомпанія: Universal Pictures, Legendary Pictures
Режисер: Ол Паркер
Актори: Меріл Стріп, Лілі Джеймс, Аманда Сайфред, Колін Ферт, Крістін Баранськи, Джулі Волтерс, Пірс Броснан, Джеремі Ірвін, Стеллан Скарсґард, Енді Гарсія та інші

Сюжет:
Світовий феномен повертається! Вирушаймо разом на грецький острів до романтичних пригод, легкого гумору і приголомшливих краєвидів.


Тривалість: 01:53:40
Якість: 1080p
Відео:
кодек:
розмір кадру: 1920x800
бітрейт: 9365 кб/с

Аудіо # 1:
мова: українська
переклад: професійний дубльований | студія LeDoyen
кодек: 2.0 [стерео]
бітрейт: 192 кб/с

Аудіо # 2:
мова: англійська
переклад: оригінал
кодек: 5.1
бітрейт: 640 кб/с

Субтитри: (окремо)
мова: українська (на пісні - завантажити)
тип: програмні (м'які)
формат: *.srt
переклад: подорожній

Субтитри:
мова: англійська
тип: програмні (м'які)
формат: *.srt
Info
General
Unique ID : 75176343381819280789420764993996456572 (0x388E6FE4A986054F62A96FF1E248027C)
Complete name : N:\Фільми HD\Комедія\Mamma Mia! Here We Go Again (2018) 1080p [UKR_ENG] [Hurtom].
Format :
Format version : Version 4 / Version 2
File size : 8.10 GiB
Duration : 1 h 53 min
Overall bit rate : 10.2 Mb/s
Movie name : Mamma Mia! Here We Go Again (2018) 1080p [UKR_ENG] [Hurtom]
Encoded date : UTC 2018-10-13 06:33:02
Writing application : v24.0.0 ('Beyond The Pale') 64-bit
Writing library : libebml v1.3.6 + v1.4.9
Cover : Yes
Attachments : cover.jpg

Video
ID : 1
Format : AVC
Format/Info : Advanced Video Codec
Format profile : [email protected]
Format settings : CABAC / 5 Ref Frames
Format settings, CABAC : Yes
Format settings, ReFrames : 5 frames
Codec ID : V_MPEG4/ISO/AVC
Duration : 1 h 53 min
Bit rate : 9 365 kb/s
Width : 1 920 pixels
Height : 800 pixels
Display aspect ratio : 2.40:1
Frame rate mode : Constant
Frame rate : 23.976 (24000/1001) FPS
Color space : YUV
Chroma subsampling : 4:2:0
Bit depth : 8 bits
Scan type : Progressive
Bits/(Pixel*Frame) : 0.254
Stream size : 7.43 GiB (92%)
Writing library : core 157 r2935 545de2f
Encoding settings : cabac=1 / ref=5 / deblock=1:-3:-3 / analyse=0x3:0x113 / me=umh / subme=8 / psy=1 / psy_rd=1.00:0.00 / mixed_ref=1 / me_range=16 / chroma_me=1 / trellis=1 / 8x8dct=1 / cqm=0 / deadzone=21,11 / fast_pskip=1 / chroma_qp_offset=-2 / threads=24 / lookahead_threads=4 / sliced_threads=0 / nr=0 / decimate=1 / interlaced=0 / bluray_compat=0 / constrained_intra=0 / bframes=3 / b_pyramid=2 / b_adapt=1 / b_bias=0 / direct=3 / weightb=1 / open_gop=0 / weightp=2 / keyint=250 / keyint_min=23 / scenecut=40 / intra_refresh=0 / rc_lookahead=50 / rc=2pass / mbtree=1 / bitrate=9365 / ratetol=1.0 / qcomp=0.60 / qpmin=0 / qpmax=69 / qpstep=4 / cplxblur=20.0 / qblur=0.5 / ip_ratio=1.40 / aq=1:1.00
Language : English
Default : Yes
Forced : No

Audio #1
ID : 2
Format : AC-3
Format/Info : Audio Coding 3
Codec ID : A_AC3
Duration : 1 h 53 min
Bit rate mode : Constant
Bit rate : 192 kb/s
Channel(s) : 2 channels
Channel positions : Front: L R
Sampling rate : 48.0 kHz
Frame rate : 31.250 FPS (1536 SPF)
Bit depth : 16 bits
Compression mode : Lossy
Stream size : 156 MiB (2%)
Title : [UA-DUB-LeDoyen]
Language : Ukrainian
Service kind : Complete Main
Default : Yes
Forced : Yes

Audio #2
ID : 3
Format : AC-3
Format/Info : Audio Coding 3
Codec ID : A_AC3
Duration : 1 h 53 min
Bit rate mode : Constant
Bit rate : 640 kb/s
Channel(s) : 6 channels
Channel positions : Front: L C R, Side: L R, LFE
Sampling rate : 48.0 kHz
Frame rate : 31.250 FPS (1536 SPF)
Bit depth : 16 bits
Compression mode : Lossy
Stream size : 520 MiB (6%)
Language : English
Service kind : Complete Main
Default : No
Forced : No

Text #1
ID : 4
Format : UTF-8
Codec ID : S_TEXT/UTF8
Codec ID/Info : UTF-8 Plain Text
Duration : 1 h 53 min
Bit rate : 75 b/s
Count of elements : 2177
Stream size : 62.4 KiB (0%)
Title : SDH
Language : English
Default : No
Forced : No

Text #2
ID : 5
Format : UTF-8
Codec ID : S_TEXT/UTF8
Codec ID/Info : UTF-8 Plain Text
Duration : 1 h 51 min
Bit rate : 153 b/s
Count of elements : 2134
Stream size : 126 KiB (0%)
Title : SDH Colored
Language : English
Default : No
Forced : No

Menu
00:00:00.000 : en:1
00:03:00.805 : en:2
00:09:09.798 : en:3
00:16:42.000 : en:4
00:24:24.712 : en:5
00:26:56.029 : en:6
00:34:59.887 : en:7
00:39:14.474 : en:8
00:43:48.498 : en:9
00:50:28.356 : en:10
00:53:27.868 : en:11
00:58:32.672 : en:12
01:04:53.386 : en:13
01:15:12.296 : en:14
01:24:54.044 : en:15
01:27:05.508 : en:16
01:28:59.914 : en:17
01:33:02.781 : en:18
01:37:20.246 : en:19
01:43:10.512 : en:20
Скріншоти




Джерело: &
Особиста оцінка: 0 - не дивився
Мамма Міа! 2 / Mamma Mia! Here We Go Again (2018) 1080p Ukr/Eng | Sub Eng
Мамма Міа! 2 / Mamma Mia! Here We Go Again (2018) 1080p Ukr/Eng | Sub Eng


 Трекер:    Зареєстрований   

Завантажити / скачати фільм українською



відео для новачків



 Зареєстрований:   2018-10-13 08:51
 Розмір:   8.1 GB 
 Оцінка фільму:   8.3/10 (Голосів: 14)
   
Інші релізи
подорожній 
Свій


З нами з: 20.06.15
Востаннє: 18.12.18
Повідомлень: 105

2018-10-19 14:28  
Мюзикл чудовий! Шкода, що імпозантна Шер з'являється лише в кінці, і своєю роллю якісно підняла професійний рівень виконання музики "АВВА" в цьому мюзиклі. Але чому нема українських субтитрів на пісні?
igor911 
Відео Гуртом
Відео Гуртом


З нами з: 18.01.08
Востаннє: 19.12.18
Повідомлень: 11620

2018-10-19 15:28  
подорожній написано:
Але чому нема українських субтитрів на пісні?

подорожній, https://toloka.to/t95674#1036213 забув?

подорожній 
Свій


З нами з: 20.06.15
Востаннє: 18.12.18
Повідомлень: 105

2018-10-20 13:38  
igor911 написано:
подорожній, https://toloka.to/t95674#1036213 забув?

Там вже дооформили, а тут - ще ні, тому й запитав...

0mage0 
VIP


З нами з: 06.10.15
Востаннє: 18.12.18
Повідомлень: 412

2018-10-23 15:36  
Гарні пісні, нехитрий сюжет, як для мюзиклу норм.
Ваш часовий пояс: GMT + 2 Години

Нова тема   Відповісти