Мандрівники / Wanderers (2014) 1080p

Нові коментарі

Нова тема   Відповісти
Автор Повідомлення
Konstantin_Exorcist 
Забанено
Забанено


З нами з: 18.11.14
Востаннє: 15.08.19
Повідомлень: 152

2018-10-12 23:14  
Мандрівники / Wanderers (2014) 1080p

Мандрівники / Wanderers (2014) 1080p


Жанр: фантастика, документальний
Країна: США



Режисер: Вернквіст Ерік
Актори: Саґан Карл

Сюжет:
Що, якби ми, люди, розширили наші горизонти за межі блідої блакитної планети під назвою Земля?


Тривалість: 00:03:50
Якість:
Відео:
кодек:
розмір кадру: 1920 х 816
бітрейт: 13898 кб/с

Аудіо:
мова: українська
переклад: любительськимй дубльований
кодек: 2.0
бітрейт: 256 кб/с

Субтитри:
мова: українська
тип: вбудовані (жорсткі)
Info
General
Unique ID : 188910650005267930551450353187020984707 (0x8E1EDE25E79C25C5BB133E706455D183)
Complete name : D:\Фільми\Мандрівники (2014) - Wanderers - a short film by Erik Wernquist (UKR).
Format :
Format version : Version 4 / Version 2
File size : 381 MiB
Duration : 3 min 50 s
Overall bit rate : 13.9 Mb/s
Encoded date : UTC 2018-09-03 13:17:20
Writing application : v7.0.0 ('Where We Going') 32bit built on Jun 9 2014 15:08:34
Writing library : libebml v1.3.0 + v1.4.1

Video
ID : 1
Format : AVC
Format/Info : Advanced Video Codec
Format profile : [email protected]
Format settings : CABAC / 5 Ref Frames
Format settings, CABAC : Yes
Format settings, ReFrames : 5 frames
Codec ID : V_MPEG4/ISO/AVC
Duration : 3 min 50 s
Bit rate : 13.7 Mb/s
Width : 1 920 pixels
Height : 816 pixels
Display aspect ratio : 2.35:1
Frame rate mode : Constant
Frame rate : 25.000 FPS
Color space : YUV
Chroma subsampling : 4:2:0
Bit depth : 8 bits
Scan type : Progressive
Bits/(Pixel*Frame) : 0.349
Stream size : 374 MiB (98%)
Writing library : core 144 r2525 40bb568
Encoding settings : cabac=1 / ref=5 / deblock=1:-1:-1 / analyse=0x1:0x131 / me=umh / subme=9 / psy=1 / psy_rd=1.00:0.15 / mixed_ref=1 / me_range=16 / chroma_me=1 / trellis=2 / 8x8dct=0 / cqm=0 / deadzone=21,11 / fast_pskip=1 / chroma_qp_offset=-3 / threads=12 / lookahead_threads=1 / sliced_threads=0 / nr=0 / decimate=1 / interlaced=0 / bluray_compat=0 / constrained_intra=0 / bframes=3 / b_pyramid=2 / b_adapt=2 / b_bias=0 / direct=3 / weightb=1 / open_gop=0 / weightp=2 / keyint=250 / keyint_min=25 / scenecut=40 / intra_refresh=0 / rc_lookahead=60 / rc=crf / mbtree=1 / crf=16.0 / qcomp=0.60 / qpmin=0 / qpmax=69 / qpstep=4 / ip_ratio=1.40 / aq=1:1.00
Default : Yes
Forced : No

Audio
ID : 2
Format : LC
Format/Info : Advanced Audio Codec Low Complexity
Codec ID : A_AAC-2
Duration : 3 min 50 s
Bit rate : 256 kb/s
Channel(s) : 2 channels
Channel layout : L R
Sampling rate : 48.0 kHz
Frame rate : 46.875 FPS (1024 SPF)
Compression mode : Lossy
Stream size : 7.03 MiB (2%)
Language : Ukrainian
Default : Yes
Forced : Yes
Скріншоти


Джерело:
Особиста оцінка: 10 - без зайвих вагань рекомендую всім!


Золотий реліз (завантажене не впливає на рейтинг)
 Трекер:    Зареєстрований   

Завантажити / скачати фільм українською



відео для новачків



 Зареєстрований:   2018-10-12 23:14
 Розмір:   381 MB 
 Оцінка фільму:   9.6/10 (Голосів: 5)
   
11FrYkT 
Модератор відео


З нами з: 20.02.11
Востаннє: 23.09.19
Повідомлень: 6205

2018-10-21 16:51  
Konstantin_Exorcist написано:
Мандрівники / Wanderers (2014) 1080p Ukr

Вказати якість
додати звіт Медіаінфо, ІМДБ,

Ваш часовий пояс: GMT + 2 Години

Нова тема   Відповісти