Німий гнів / Silent Rage (1982) Remux 1080p Ukr/Eng | Sub Eng

Нові коментарі

Нова тема   Відповісти
Автор Повідомлення
kryk-v.ya. 
VIP


З нами з: 14.02.14
Востаннє: 21.10.18
Повідомлень: 620

2018-10-12 11:54  
Німий гнів / Silent Rage (1982) Remux 1080p Ukr/Eng | Sub Eng

Німий гнів / Silent Rage (1982) Remux 1080p Ukr/Eng | Sub Eng


Жанр: жахи, фантастика, бойовик, трилер
Країна: США



Кінокомпанія: Columbia Pictures
Режисер: Майкл Міллер
Актори: Чак Норріс, Рон Сільвер, Стівен Ферст, Тоні Калем, Стівен Кітс

Сюжет:
Непереможний шериф, вартий армії поліцейських. Вбивця - психопат, перетворений на зомбі у медичній лабораторії. У маленькому техаському містечку їхні шляхи перетинаються. Але на фатальному перехресті служителю закону не допоможе поліцейський значок. Щоб зупинити звіра у людській подобі, йому потрібна нелюдська сила ..


Тривалість: 01:40:25
Якість: Remux 1080p
Відео:
кодек: MPEG-2
розмір кадру: 1920 х 1080
бітрейт: 18,4 Mб/с

Аудіо # 1:
мова: українська
переклад: багатоголосий закадровий
кодек: 2.0
бітрейт: 192 кб/с

Аудіо # 2:
мова: англійська
переклад: оригінал
кодек: 2.0
бітрейт: 384 кб/с

Джерело озвучення:


Субтитри:
мова: англійська
тип: програмні (м'які)
формат: *.srt
Info
General
Unique ID : 49172818693160643390325244478498768809 (0x24FE572443CF973ED8175A7D9C4B87A9)
Complete name : F:\Silent Rage (1982) Remux 1080p.
Format :
Format version : Version 4 / Version 2
File size : 13.3 GiB
Duration : 1 h 40 min
Overall bit rate mode : Variable
Overall bit rate : 19.0 Mb/s
Encoded date : UTC 2018-10-12 07:59:03
Writing application : v25.0.0 ('Prog Noir') 64-bit
Writing library : libebml v1.3.6 + v1.4.9
Attachments : 0069.jpg

Video
ID : 1
Format : MPEG Video
Format version : Version 2
Format profile : [email protected]
Format settings : BVOP
Format settings, BVOP : Yes
Format settings, Matrix : Default
Format settings, GOP : M=3, N=12
Codec ID : V_MPEG2
Codec ID/Info : MPEG 1 or 2 Video
Duration : 1 h 40 min
Bit rate mode : Variable
Bit rate : 18.4 Mb/s
Maximum bit rate : 30.0 Mb/s
Width : 1 920 pixels
Height : 1 080 pixels
Display aspect ratio : 16:9
Frame rate mode : Constant
Frame rate : 23.976 (24000/1001) FPS
Color space : YUV
Chroma subsampling : 4:2:0
Bit depth : 8 bits
Scan type : Progressive
Compression mode : Lossy
Bits/(Pixel*Frame) : 0.370
Time code of first frame : 00:00:00:00
Time code source : Group of pictures header
GOP, Open/Closed : Closed
Stream size : 12.9 GiB (97%)
Default : Yes
Forced : No

Audio #1
ID : 2
Format : AC-3
Format/Info : Audio Coding 3
Codec ID : A_AC3
Duration : 1 h 40 min
Bit rate mode : Constant
Bit rate : 192 kb/s
Channel(s) : 2 channels
Channel positions : Front: L R
Sampling rate : 48.0 kHz
Frame rate : 31.250 FPS (1536 SPF)
Bit depth : 16 bits
Compression mode : Lossy
Stream size : 138 MiB (1%)
Title : MVO-Інтер
Language : Ukrainian
Service kind : Complete Main
Default : Yes
Forced : No

Audio #2
ID : 3
Format : AC-3
Format/Info : Audio Coding 3
Codec ID : A_AC3
Duration : 1 h 40 min
Bit rate mode : Constant
Bit rate : 384 kb/s
Channel(s) : 2 channels
Channel positions : Front: L R
Sampling rate : 48.0 kHz
Frame rate : 31.250 FPS (1536 SPF)
Bit depth : 16 bits
Compression mode : Lossy
Stream size : 276 MiB (2%)
Title : Оригінал
Language : English
Service kind : Complete Main
Default : No
Forced : No

Text
ID : 4
Format : UTF-8
Codec ID : S_TEXT/UTF8
Codec ID/Info : UTF-8 Plain Text
Duration : 1 h 37 min
Bit rate : 40 b/s
Count of elements : 1199
Stream size : 29.1 KiB (0%)
Language : English
Default : Yes
Forced : No

Menu
00:00:00.000 : en:00:00:00.000
00:13:51.330 : en:00:13:51.330
00:22:00.318 : en:00:22:00.318
00:35:08.606 : en:00:35:08.606
00:44:23.661 : en:00:44:23.661
01:01:38.695 : en:01:01:38.695
01:10:36.732 : en:01:10:36.732
01:23:08.984 : en:01:23:08.984
01:37:20.334 : en:01:37:20.334
00:00:00.083 : en:Глава 01
Скріншоти




Збережено оригінальні розділи, як на Blu-ray.

Джерело: &
Особиста оцінка: 10 - без зайвих вагань рекомендую всім!

Велика подяка п.andrew_crasher за роботу над доріжкою.


Золотий реліз (завантажене не впливає на рейтинг)
 Трекер:    Зареєстрований   

Завантажити / скачати фільм українською



відео для новачків



 Зареєстрований:   2018-10-12 11:54
 Розмір:   13.3 GB 
 Оцінка фільму:   10/10 (Голосів: 4)
   
Інші релізи
   Німий гнів / Silent Rage (1982) Ukr/Eng andrew_crasher  1 / 0   1.37 GB   2012-11-28 21:10 
Ваш часовий пояс: GMT + 2 Години

Нова тема   Відповісти