Хмарочос / Skyscraper (2018) UHD Remux 2160p 4K HDR H.265 Ukr/Eng | Sub Eng

Нові коментарі

Нова тема   Відповісти
Останній раз роздавалося dMole (2018-12-19)
Автор Повідомлення
Documentalist 
Свій


З нами з: 04.06.17
Востаннє: 19.12.18
Повідомлень: 53

2018-10-11 21:26  
Хмарочос / Skyscraper (2018) UHD Remux 2160p 4K HDR H.265 Ukr/Eng | Sub Eng


Хмарочос / Skyscraper (2018) UHD Remux 2160p 4K HDR H.265 Ukr/Eng | Sub Eng


Жанр: бойовик, драма, кримінальний, трилер
Країна: США



Кінокомпанія: Legendary Entertainment, Flynn Picture Company, Seven Bucks Productions
Режисер: Роусон Маршалл Тьорбер
Актори: Двейн Джонсон, Нів Кемпбелл, Пабло Шрайбер, Ноа Тейлор, Кевін О. Ранкін, МакКенна Робертс, Роланд Мюллер, Байрон Манн, Метью О’Лірі, Адріан Холмс

Сюжет:
Ветеран війни і колишній командир команди ФБР зі звільнення заручників Вілл Форд тепер займається безпекою висотних будівель. Він відправляється в Китай для нової роботи, де стає свідком того, як найвищий і найбезпечніший хмарочос у світі охоплює полум'я, і його звинувачують в цьому. Тепер Форд є розшукуваною людиною, і щоб очистити своє ім'я, йому доведеться знайти тих, хто відповідальний за це, і в той же час якимось чином встигнути врятувати свою сім'ю, яка опинилася в пастці в тому ж хмарочосі над смугою вогню.


Тривалість: 01:42:24
Якість: UHD Remux
Відео:
кодек: H.265
розмір кадру: 3840 х 2160
бітрейт: 69.1 Мб/с
бітова глибина: 10 біт
кольоровий простір: BT.2020 (HDR)

Аудіо:
мова: українська
переклад: професійний дубльований
кодек: 2.0
бітрейт: 192 кб/с

Аудіо: #2
мова: англійська
переклад: професійний дубльований
кодек: TrueHD+Atmos / TrueHD 7.1
бітрейт: 2836 кб/с

Субтитри:
мова: українська (Форсованi)
тип: програмні (м'які)
формат: *.srt

Субтитри: #2
мова: англiйcька
тип: програмні (м'які) (Повнi, форсованi)
формат: *.srt
Info
Format :
Format version : Version 4
File size : 51.7 GiB
Duration : 1 h 42 min
Overall bit rate mode : Variable
Overall bit rate : 72.2 Mb/s
Movie name : Хмарочос 4K
Encoded date : UTC 2018-10-11 18:12:45
Writing application : v7.8.0 ('River Man') 32bit built on Apr 3 2015 12:11:22
Writing library : libebml v1.3.1 + v1.4.2
Cover : Yes
Attachments : cover.jpg

Video
ID : 1
Format : HEVC
Format/Info : High Efficiency Video Coding
Commercial name : HDR10
Format profile : Main [email protected]@High
Codec ID : V_MPEGH/ISO/HEVC
Duration : 1 h 42 min
Bit rate : 69.1 Mb/s
Width : 3 840 pixels
Height : 2 160 pixels
Display aspect ratio : 16:9
Frame rate mode : Constant
Frame rate : 23.976 (24000/1001) FPS
Color space : YUV
Chroma subsampling : 4:2:0 (Type 2)
Bit depth : 10 bits
Bits/(Pixel*Frame) : 0.348
Stream size : 49.5 GiB (96%)
Title : Хмарочос
Language : Ukrainian
Default : Yes
Forced : No
Color range : Limited
Color primaries : BT.2020
Transfer characteristics : PQ
Matrix coefficients : BT.2020 non-constant
Mastering display color pri : Display P3
Mastering display luminance : min: 0.0050 cd/m2, max: 1000 cd/m2
Maximum Content Light Level : 1000 cd/m2
Maximum Frame-Average Light : 986 cd/m2

Audio #1
ID : 2
Format : AC-3
Format/Info : Audio Coding 3
Commercial name : Dolby Digital
Codec ID : A_AC3
Duration : 1 h 42 min
Bit rate mode : Constant
Bit rate : 192 kb/s
Channel(s) : 2 channels
Channel layout : L R
Sampling rate : 48.0 kHz
Frame rate : 31.250 FPS (1536 SPF)
Bit depth : 16 bits
Compression mode : Lossy
Stream size : 141 MiB (0%)
Language : Ukrainian
Service kind : Complete Main
Default : Yes
Forced : Yes

Audio #2
ID : 3
Format : MLP FBA 16-ch
Format/Info : Meridian Lossless Packing FBA with 16-channel presentation
Commercial name : Dolby TrueHD with Dolby Atmos
Codec ID : A_TRUEHD
Duration : 1 h 42 min
Bit rate mode : Variable
Bit rate : 2 836 kb/s
Maximum bit rate : 5 022 kb/s
Channel(s) : 8 channels
Channel layout : L R C LFE Ls Rs Lb Rb
Sampling rate : 48.0 kHz
Frame rate : 1 200.000 FPS (40 SPF)
Compression mode : Lossless
Stream size : 2.03 GiB (4%)
Title : TrueHD Atmos 7.1
Language : English
Default : No
Forced : No
Number of dynamic objects : 11
Bed channel count : 1 channel
Bed channel configuration : LFE

Text #1
ID : 4
Format : UTF-8
Codec ID : S_TEXT/UTF8
Codec ID/Info : UTF-8 Plain Text
Duration : 1 h 26 min
Bit rate : 5 b/s
Count of elements : 84
Stream size : 3.78 KiB (0%)
Title : Форсованi
Language : Ukrainian
Default : Yes
Forced : Yes

Text #2
ID : 5
Format : UTF-8
Codec ID : S_TEXT/UTF8
Codec ID/Info : UTF-8 Plain Text
Duration : 1 h 31 min
Bit rate : 43 b/s
Count of elements : 988
Stream size : 29.2 KiB (0%)
Title : Full
Language : English
Default : No
Forced : No

Text #3
ID : 6
Format : UTF-8
Codec ID : S_TEXT/UTF8
Codec ID/Info : UTF-8 Plain Text
Duration : 1 h 42 min
Bit rate : 54 b/s
Count of elements : 1475
Stream size : 40.5 KiB (0%)
Title : SDH
Language : French
Default : No
Forced : No
Скріншоти





Перегляд 4K HDR-контенту на ПК, керівництво з експлуатації

Для перегляду HDR-контенту необхідний телевізор з підтримкою HDR. Просто запишіть на usb-накопичувач викачане відео і встановіть його в ваш ТВ. На звичайних дисплеях зображення буде виглядати неконтрастним і знебарвленим.

Вирішення цієї проблеми, зараз можливо на PC під ОС Windows, використовуючи плеєр, який підтримує висновок зображення через рендер madvr (http://madvr.com), який може виконувати програмну конверсію, у кольоровий простір і гаму REC.709.

Ми рекомендуємо Media Player Classic Home Cinema.

Після встановлення рекомендованих плеєрів, необхідно окремо встановити madvr.
Для цього скачайте з сайту архів, розпакуйте його в зручне місце і запустіть install.bat від облікового запису адміністратора.
Після установки, папку з вмістом не видаляти!
Якщо папку необхідно перенести в інше місце, то після перенесення необхідно знову запустити install.bat.
Для того, щоб зображення виводилося за допомогою madvr, його необхідно вибрати в налаштуваннях плеєра:
Особиста оцінка: 10 - без зайвих вагань рекомендую всім!

Джерело:






Золотий реліз (завантажене не впливає на рейтинг)
 Трекер:    Зареєстрований   

Завантажити / скачати фільм українською



відео для новачків



 Зареєстрований:   2018-10-11 21:26
 Розмір:   51.67 GB 
 Оцінка фільму:   8.8/10 (Голосів: 6)
   
Інші релізи
   Хмарочос / Skyscraper (2018) Remux 1080p Ukr/Eng | Sub Eng kryk-v.ya.  2 / 0   28.72 GB   2018-10-21 08:29 
   Хмарочос / Skyscraper (2018) 1080p H.265 Ukr/Eng | Sub Eng -Star-Lord-  10 / 0   5.75 GB   2018-10-05 12:34 
   Хмарочос / Skyscraper (2018) Ukr/Eng | Sub Eng 11FrYkT  15 / 0   1.46 GB   2018-10-04 17:37 
   Хмарочос / Skyscraper (2018) 720p Ukr/Eng | Sub Eng 11FrYkT  9 / 0   4.4 GB   2018-10-04 16:51 
   Хмарочос / Skyscraper (2018) AVC Ukr/Eng | Sub Eng uafilm.tv  4 / 2   2.01 GB   2018-10-03 22:07 
   Хмарочос / Skyscraper (2018) 1080p Ukr/Eng | Sub Eng staf777  17 / 0   10.44 GB   2018-09-30 20:40 
11FrYkT 
Модератор відео


З нами з: 20.02.11
Востаннє: 18.12.18
Повідомлень: 5280

2018-10-14 10:01  
Documentalist , яку версію МІ Ви використовуєте, бо є підозра що старішу і він не правильно показує бітрейт доріжки
Electroz 
Відео Гуртом - підтримка та поширення
Відео Гуртом - підтримка та поширення


З нами з: 18.09.14
Востаннє: 19.12.18
Повідомлень: 3181

2018-10-14 11:30  
11FrYkT
На зарубіжних трекерах аналогічний бітрейт.

Documentalist 
Свій


З нами з: 04.06.17
Востаннє: 19.12.18
Повідомлень: 53

2018-10-14 13:35  
11FrYkT
Версiя 18.08.1.Бiтрейт вказано вiрно!

doode12 
Новенький


З нами з: 30.10.12
Востаннє: 17.12.18
Повідомлень: 11

2018-10-15 21:06  
Тобто просто 4к телевізора не хватить щоб дивитися 4к відео?
Documentalist 
Свій


З нами з: 04.06.17
Востаннє: 19.12.18
Повідомлень: 53

2018-10-16 02:14  
doode12 написано:
HDR

Якщо нема пiдтримки HDR, тодi по керівництво з експлуатації.
Якщо так.То все добре.

drot1715 
Новенький


З нами з: 27.08.14
Востаннє: 18.12.18
Повідомлень: 2

2018-10-16 19:14  
Чи буде українська доріжка 5.1?
Documentalist 
Свій


З нами з: 04.06.17
Востаннє: 19.12.18
Повідомлень: 53

2018-10-17 14:17  
drot1715
Я дивився у канали звуку.Дуже складно зробить 5.1 .Укромовна дорiжка дуже зашумована,на потрiбних мiсцях.Буде чутно стрибки гучностi.А лiцензiного ,нi не буде.

Ваш часовий пояс: GMT + 2 Години

Нова тема   Відповісти