Темні уми / The Darkest Minds (2018) 1080p Ukr/Eng | Sub Ukr/Eng

Нові коментарі

Нова тема   Відповісти
Автор Повідомлення
Anonymous 







2018-10-11 21:42  
Темні уми / The Darkest Minds (2018) 1080p Ukr/Eng | Sub Ukr/Eng

Усі інші українські постери:














(автор постера - Lazzarus)


Жанр: трилер, фантастика
Країна: США



Кінокомпанія: 21 Laps Entertainment
Режисер: Дженніфер Ю Нельсон / Jennifer Yuh Nelson
Актори: Амандла Стенберг / Amandla Stenberg, Менді Мур / Mandy Moore, Бредлі Вітфорд / Bradley Whitford, Гарріс Дікінсон / Harris Dickinson, Патрік Гібсон / Patrick Gibson, Скайлан Брукс / Skylan Brooks, Мія Чех / Miya Cech, Гвендолін Крісті / Gwendoline Christie, Вейд Вільямс / Wade Williams, Марк О'Брайен / Mark O'Brien та інші

Сюжет:
Коли у підлітків починають розвиватися нові надприродні здібності, держава оголошує їх небезпечними та ізолює від суспільства. Шістнадцятирічна Рубі, одна з наймогутніших молодих людей за всю історію людства, тікає зі свого табору й приєднується до групи підлітків-утікачів, які шукають безпечного притулку. Незабаром члени цієї новоутвореної родини усвідомлюють: у світі, яким керують дорослі, що їх зрадили, втеча – не вихід, треба чинити спротив, об'єднувати зусилля, аби повернути собі контроль над власним майбутнім.
Офіційні українські промо та трейлери:

відео 1:


відео 2:


відео 3:


трейлер:

Рейтинг MPAA: PG-13 - дітям до 13 років перегляд не бажаний
Вікова категорія: 12+
Тривалість: 01:44:34
Якість: 1080p

Відео:
кодек:
розмір кадру: 1920х804
бітрейт: 4537 кб/с

Аудіо # 1:
мова: українська
переклад: професійний дубльований | студія Postmodern
кодек: 2.0
бітрейт: 125 кб/с

Аудіо # 2:
мова: англійська
переклад: оригінал
кодек: 5.1
бітрейт: 384 кб/с

Субтитри # 1-2:
мова: українська (форсовані, повні)
тип: програмні (м'які)
формат: *.srt

Субтитри # 3:
мова: англійська
тип: програмні (м'які)
формат: *.srt
Info
Код:
Complete name               : The Darkest Minds (2018) [Ukr,Eng sub.Ukr,Eng] 1080p [Hurtom].
Format                      :
Format version              : Version 4
File size                   : 3.69 GiB
Duration                    : 1 h 44 min
Overall bit rate            : 5 046 kb/s
Movie name                  : Темні уми / The Darkest Minds (2018) [Ukr,Eng sub.Ukr,Eng] 1080p [Hurtom]
Encoded date                : UTC 2018-10-11 19:30:38
Writing application         : v27.0.0 ('Metropolis') 64-bit
Writing library             : libebml v1.3.6 + v1.4.9
Cover                       : Yes
Attachments                 : cover.jpg

Video
ID                          : 1
Format                      : AVC
Format/Info                 : Advanced Video Codec
Format profile              : [email protected]
Format settings             : CABAC / 5 Ref Frames
Format settings, CABAC      : Yes
Format settings, ReFrames   : 5 frames
Codec ID                    : V_MPEG4/ISO/AVC
Duration                    : 1 h 44 min
Bit rate                    : 4 537 kb/s
Width                       : 1 920 pixels
Height                      : 804 pixels
Display aspect ratio        : 2.40:1
Frame rate mode             : Constant
Frame rate                  : 23.976 FPS
Color space                 : YUV
Chroma subsampling          : 4:2:0
Bit depth                   : 8 bits
Scan type                   : Progressive
Bits/(Pixel*Frame)          : 0.123
Stream size                 : 3.31 GiB (90%)
Title                       : Темні уми / The Darkest Minds (2018) 1080p [BLUEBIRD]
Language                    : English
Default                     : Yes
Forced                      : No
Color range                 : Limited
Color primaries             : BT.709
Transfer characteristics    : BT.709
Matrix coefficients         : BT.709

Audio #1
ID                          : 2
Format                      : LC
Format/Info                 : Advanced Audio Codec Low Complexity
Codec ID                    : A_AAC-2
Duration                    : 1 h 43 min
Bit rate                    : 125 kb/s
Channel(s)                  : 2 channels
Channel layout              : L R
Sampling rate               : 44.1 kHz
Frame rate                  : 43.066 FPS (1024 SPF)
Compression mode            : Lossy
Stream size                 : 92.9 MiB (2%)
Title                       : Dub [Postmodern, іTunеs] 2.0 125 Kbps
Language                    : Ukrainian
Default                     : Yes
Forced                      : Yes

Audio #2
ID                          : 3
Format                      : AC-3
Format/Info                 : Audio Coding 3
Commercial name             : Dolby Digital
Codec ID                    : A_AC3
Duration                    : 1 h 43 min
Bit rate mode               : Constant
Bit rate                    : 384 kb/s
Channel(s)                  : 6 channels
Channel layout              : L R C LFE Ls Rs
Sampling rate               : 48.0 kHz
Frame rate                  : 31.250 FPS (1536 SPF)
Bit depth                   : 16 bits
Compression mode            : Lossy
Stream size                 : 285 MiB (8%)
Title                       : Original, 5.1 384 kbps
Language                    : English
Service kind                : Complete Main
Default                     : No
Forced                      : No

Text #1
ID                          : 4
Format                      : UTF-8
Codec ID                    : S_TEXT/UTF8
Codec ID/Info               : UTF-8 Plain Text
Duration                    : 1 h 40 min
Bit rate                    : 0 b/s
Count of elements           : 6
Stream size                 : 384 Bytes (0%)
Title                       : Ukr Forced
Language                    : Ukrainian
Default                     : Yes
Forced                      : Yes

Text #2
ID                          : 5
Format                      : UTF-8
Codec ID                    : S_TEXT/UTF8
Codec ID/Info               : UTF-8 Plain Text
Duration                    : 1 h 42 min
Bit rate                    : 73 b/s
Count of elements           : 1291
Stream size                 : 55.0 KiB (0%)
Title                       : Ukr Full-length
Language                    : Ukrainian
Default                     : No
Forced                      : No

Text #3
ID                          : 6
Format                      : UTF-8
Codec ID                    : S_TEXT/UTF8
Codec ID/Info               : UTF-8 Plain Text
Duration                    : 1 h 36 min
Bit rate                    : 52 b/s
Count of elements           : 1372
Stream size                 : 37.1 KiB (0%)
Title                       : Eng Full-length
Language                    : English
Default                     : No
Forced                      : No

Menu
00:00:00.000                : en:Chapter 01
00:03:52.357                : en:Chapter 02
00:09:39.037                : en:Chapter 03
00:14:32.747                : en:Chapter 04
00:19:25.956                : en:Chapter 05
00:23:34.536                : en:Chapter 06
00:26:23.161                : en:Chapter 07
00:30:49.927                : en:Chapter 08
00:35:34.336                : en:Chapter 09
00:41:20.557                : en:Chapter 10
00:47:21.917                : en:Chapter 11
00:51:47.306                : en:Chapter 12
00:55:54.219                : en:Chapter 13
00:59:31.811                : en:Chapter 14
01:03:32.676                : en:Chapter 15
01:08:39.606                : en:Chapter 16
01:12:13.236                : en:Chapter 17
01:14:10.435                : en:Chapter 18
01:18:00.789                : en:Chapter 19
01:20:53.502                : en:Chapter 20
01:23:26.987                : en:Chapter 21
01:26:55.862                : en:Chapter 22
01:29:23.967                : en:Chapter 23
01:37:58.939                : en:Chapter 24


Джерело: &


 Трекер:    Зареєстрований   

Завантажити / скачати фільм українською



відео для новачків



 Зареєстрований:   2018-10-11 22:42
 Розмір:   3.69 GB 
 Оцінка фільму:   8.5/10 (Голосів: 21)
   
Інші релізи
   Темні уми / The Darkest Minds (2018) Ukr/Eng antik_2008  123 / 7   1.6 GB   2018-10-12 08:32 
   Темні уми / The Darkest Minds (2018) AVC Ukr/Eng | Sub Ukr/Eng 11FrYkT  61 / 3   1.7 GB   2018-10-11 23:06 
   Темні уми / The Darkest Minds (2018) 720p Ukr/Eng | Sub Ukr/Eng 11FrYkT  34 / 0   3.34 GB   2018-10-11 22:54 
Anonymous 







2018-10-11 22:43  
реліз готовий до завантаження
Quit_ua 
Новенький


З нами з: 13.08.18
Востаннє: 15.10.18
Повідомлень: 17

2018-10-12 17:20  
фільм для дітей до 7 класу) одні соплі і страждання, а кінець то взагалі фарс...
Ваш часовий пояс: GMT + 2 Години

Нова тема   Відповісти