Темні уми / The Darkest Minds (2018) 1080p Ukr/Eng | Sub Ukr/Eng

Нові коментарі

Нова тема   Відповісти
Автор Повідомлення
Anonymous 







2018-10-11 20:42  
Темні уми / The Darkest Minds (2018) 1080p Ukr/Eng | Sub Ukr/Eng

Усі інші українські постери:














(автор постера - Lazzarus)


Жанр: трилер, фантастика
Країна: США



Кінокомпанія: 21 Laps Entertainment
Режисер: Дженніфер Ю Нельсон / Jennifer Yuh Nelson
Актори: Амандла Стенберг / Amandla Stenberg, Менді Мур / Mandy Moore, Бредлі Вітфорд / Bradley Whitford, Гарріс Дікінсон / Harris Dickinson, Патрік Гібсон / Patrick Gibson, Скайлан Брукс / Skylan Brooks, Мія Чех / Miya Cech, Гвендолін Крісті / Gwendoline Christie, Вейд Вільямс / Wade Williams, Марк О'Брайен / Mark O'Brien та інші

Сюжет:
Коли у підлітків починають розвиватися нові надприродні здібності, держава оголошує їх небезпечними та ізолює від суспільства. Шістнадцятирічна Рубі, одна з наймогутніших молодих людей за всю історію людства, тікає зі свого табору й приєднується до групи підлітків-утікачів, які шукають безпечного притулку. Незабаром члени цієї новоутвореної родини усвідомлюють: у світі, яким керують дорослі, що їх зрадили, втеча – не вихід, треба чинити спротив, об'єднувати зусилля, аби повернути собі контроль над власним майбутнім.
Офіційні українські промо та трейлери:

відео 1:


відео 2:


відео 3:


трейлер:

Рейтинг MPAA: PG-13 - дітям до 13 років перегляд не бажаний
Вікова категорія: 12+
Тривалість: 01:43:47
Якість: 1080p [ріп від CHD]

Відео:
кодек:
розмір кадру: 1920х804
бітрейт: 10,1 Мб/с

Аудіо # 1:
мова: українська
переклад: професійний дубльований | студія Postmodern
кодек: 5.1
бітрейт: 448 кб/с

Аудіо # 2:
мова: українська
переклад: професійний дубльований | студія Postmodern
кодек: 2.0 [стерео]
бітрейт: 192 кб/с

Аудіо # 3:
мова: англійська
переклад: оригінал
кодек: -ES 5.1
бітрейт: 1509 кб/с

Субтитри # 1-2:
мова: українська (форсовані, повні)
тип: програмні (м'які)
формат: *.srt

Субтитри # 3:
мова: англійська
тип: програмні (м'які)
формат: *.srt

Збережено оригінальні розділи, як на Blu-ray
Info
Код:

Complete name               : The Darkest Minds (2018) [Ukr,Eng sub.Ukr,Eng] 1080p [Hurtom].
Format                      :
Format version              : Version 4
File size                   : 8.85 GiB
Duration                    : 1 h 43 min
Overall bit rate            : 12.2 Mb/s
Movie name                  : Темні уми / The Darkest Minds (2018) [Ukr,Eng sub.Ukr,Eng] 1080p [Hurtom]
Released date               : 2018
Encoded date                : UTC 2018-12-01 07:29:51
Writing application         : v28.2.0 ('The Awakening') 64-bit
Writing library             : libebml v1.3.6 + v1.4.9
Cover                       : Yes
Comment                     : https://www.imdb.com/title/tt4073790/
Attachments                 : cover.jpg
DIRECTOR                    : Дженніфер Ю Нельсон / Jennifer Yuh Nelson
GENRE                       : трилер, фантастика
SYNOPSIS                    : Коли у підлітків починають розвиватися нові надприродні здібності, держава оголошує їх небезпечними та ізолює від суспільства. Шістнадцятирічна Рубі, одна з наймогутніших молодих людей за всю історію людства, тікає зі свого табору й приєднується до групи підлітків-утікачів, які шукають безпечного притулку. Незабаром члени цієї новоутвореної родини усвідомлюють: у світі, яким керують дорослі, що їх зрадили, втеча – не вихід, треба чинити спротив, об'єднувати зусилля, аби повернути собі контроль над власним майбутнім...
Url                         : https://toloka.to/t95650

Video
ID                          : 1
Format                      : AVC
Format/Info                 : Advanced Video Codec
Format profile              : [email protected]
Format settings             : CABAC / 4 Ref Frames
Format settings, CABAC      : Yes
Format settings, ReFrames   : 4 frames
Codec ID                    : V_MPEG4/ISO/AVC
Duration                    : 1 h 43 min
Bit rate                    : 10.1 Mb/s
Width                       : 1 920 pixels
Height                      : 804 pixels
Display aspect ratio        : 2.40:1
Frame rate mode             : Constant
Frame rate                  : 23.976 (24000/1001) FPS
Color space                 : YUV
Chroma subsampling          : 4:2:0
Bit depth                   : 8 bits
Scan type                   : Progressive
Bits/(Pixel*Frame)          : 0.272
Stream size                 : 7.29 GiB (82%)
Title                       : Темні уми / The Darkest Minds (2018) 1080p [CHD, BlueBird]
Writing library             : core 155 r2867+74 66b5600 t_mod_Custom_2 [[email protected] X86_64]
Encoding settings           : cabac=1 / ref=4 / deblock=1:-3:-3 / analyse=0x3:0x113 / me=umh / subme=10 / psy=1 / fade_compensate=0.00 / psy_rd=0.90:0.10 / mixed_ref=1 / me_range=48 / chroma_me=1 / trellis=2 / 8x8dct=1 / cqm=0 / deadzone=21,11 / fast_pskip=0 / chroma_qp_offset=-2 / threads=12 / lookahead_threads=2 / sliced_threads=0 / nr=0 / decimate=1 / interlaced=0 / bluray_compat=0 / constrained_intra=0 / fgo=0 / bframes=8 / b_pyramid=2 / b_adapt=2 / b_bias=0 / direct=3 / weightb=1 / open_gop=0 / weightp=2 / keyint=250 / keyint_min=23 / scenecut=40 / intra_refresh=0 / rc_lookahead=40 / rc=crf / mbtree=0 / crf=19.0000 / qcomp=0.70 / qpmin=0:0:0 / qpmax=69:69:69 / qpstep=4 / vbv_maxrate=35000 / vbv_bufsize=35000 / crf_max=0.0 / nal_hrd=none / filler=0 / ip_ratio=1.40 / pb_ratio=1.30 / aq=3:0.90 / aq-sensitivity=10.00 / aq-factor=1.00:1.00:1.00 / aq2=0 / aq3=2:[0.50:0.50]:[0.50:0.50]:[0.50:0.50]:[0.50:0.50] / aq3-sensitivity=10.00 / aq3-factor=[1.00:1.00]:[1.00:1.00]:[1.00:1.00] / aq3-boundary=192:64:24
Language                    : English
Default                     : Yes
Forced                      : No
Color range                 : Limited
Matrix coefficients         : BT.709

Audio #1
ID                          : 2
Format                      : AC-3
Format/Info                 : Audio Coding 3
Commercial name             : Dolby Digital
Codec ID                    : A_AC3
Duration                    : 1 h 43 min
Bit rate mode               : Constant
Bit rate                    : 448 kb/s
Channel(s)                  : 6 channels
Channel layout              : L R C LFE Ls Rs
Sampling rate               : 48.0 kHz
Frame rate                  : 31.250 FPS (1536 SPF)
Bit depth                   : 16 bits
Compression mode            : Lossy
Stream size                 : 333 MiB (4%)
Title                       : Dub [Postmodern, Blu-ray] 5.1 448 Kbps
Language                    : Ukrainian
Service kind                : Complete Main
Default                     : Yes
Forced                      : No

Audio #2
ID                          : 3
Format                      : AC-3
Format/Info                 : Audio Coding 3
Commercial name             : Dolby Digital
Codec ID                    : A_AC3
Duration                    : 1 h 43 min
Bit rate mode               : Constant
Bit rate                    : 192 kb/s
Channel(s)                  : 2 channels
Channel layout              : L R
Sampling rate               : 48.0 kHz
Frame rate                  : 31.250 FPS (1536 SPF)
Bit depth                   : 16 bits
Compression mode            : Lossy
Stream size                 : 143 MiB (2%)
Title                       : Dub [Postmodern, іTunеs] 2.0 [stereo] 192 Kbps
Language                    : Ukrainian
Service kind                : Complete Main
Default                     : No
Forced                      : No

Audio #3
ID                          : 4
Format                      : ES
Format/Info                 : Digital Theater Systems
Commercial name             : -ES Matrix
Codec ID                    : A_DTS
Duration                    : 1 h 43 min
Bit rate mode               : Constant
Bit rate                    : 1 509 kb/s
Channel(s)                  : 6 channels
Channel(s)_Original         : 7 channels
Channel layout              : C L R Ls Rs Cb LFE
Sampling rate               : 48.0 kHz
Frame rate                  : 93.750 FPS (512 SPF)
Bit depth                   : 24 bits
Compression mode            : Lossy
Stream size                 : 1.09 GiB (12%)
Title                       : Original, 5.1 1509 Kbps
Language                    : English
Default                     : No
Forced                      : No

Text #1
ID                          : 5
Format                      : UTF-8
Codec ID                    : S_TEXT/UTF8
Codec ID/Info               : UTF-8 Plain Text
Duration                    : 19 min 5 s
Bit rate                    : 1 b/s
Count of elements           : 3
Stream size                 : 159 Bytes (0%)
Title                       : Ukr Forced
Language                    : Ukrainian
Default                     : No
Forced                      : Yes

Text #2
ID                          : 6
Format                      : UTF-8
Codec ID                    : S_TEXT/UTF8
Codec ID/Info               : UTF-8 Plain Text
Duration                    : 1 h 42 min
Bit rate                    : 73 b/s
Count of elements           : 1291
Stream size                 : 55.0 KiB (0%)
Title                       : Ukr Full
Language                    : Ukrainian
Default                     : No
Forced                      : No

Text #3
ID                          : 7
Format                      : UTF-8
Codec ID                    : S_TEXT/UTF8
Codec ID/Info               : UTF-8 Plain Text
Duration                    : 1 h 36 min
Bit rate                    : 52 b/s
Count of elements           : 1372
Stream size                 : 37.1 KiB (0%)
Title                       : Eng Full
Language                    : English
Default                     : No
Forced                      : No

Menu
00:00:00.000                : :00:00:00.000
00:03:53.358                : :00:03:53.358
00:09:40.038                : :00:09:40.038
00:14:33.748                : :00:14:33.748
00:19:26.957                : :00:19:26.957
00:23:35.539                : :00:23:35.539
00:26:24.166                : :00:26:24.166
00:30:50.932                : :00:30:50.932
00:35:35.342                : :00:35:35.342
00:41:21.562                : :00:41:21.562
00:47:22.923                : :00:47:22.923
00:51:48.314                : :00:51:48.314
00:55:55.227                : :00:55:55.227
00:59:32.819                : :00:59:32.819
01:03:33.685                : :01:03:33.685
01:08:40.616                : :01:08:40.616
01:12:14.247                : :01:12:14.247
01:14:11.447                : :01:14:11.447
01:18:01.802                : :01:18:01.802
01:20:54.516                : :01:20:54.516
01:23:28.003                : :01:23:28.003
01:26:56.878                : :01:26:56.878
01:29:24.985                : :01:29:24.985
01:37:59.957                : :01:37:59.957


Джерело: &

23.10.2018 реліз оновлено до 'у
01.12.2018 реліз оновлено: додано українську доріжку 5.1 з


 Трекер:    Зареєстрований   

Завантажити / скачати фільм українською



відео для новачків



 Зареєстрований:   2018-12-01 09:37
 Розмір:   8.85 GB 
 Оцінка фільму:   8.1/10 (Голосів: 48)
 ЗАЛИШАЙТЕСЬ ЯКОМОГА ДОВШЕ НА РОЗДАЧІ! ЗАВАНТАЖИВ САМ - ДАЙ ЗАВАНТАЖИТИ ІНШИМ.
   
Інші релізи
   Темні уми / The Darkest Minds (2018) 720p Ukr/Eng | Sub Ukr/Eng 11FrYkT  31 / 0   3.74 GB   2018-12-01 09:17 
   Темні уми / The Darkest Minds (2018) AVC Ukr/Eng | Sub Ukr/Eng 11FrYkT  24 / 1   1.97 GB   2018-12-01 09:17 
   Темні уми / The Darkest Minds (2018) Remux 1080p Ukr/Eng | Sub Ukr/Eng staf777  7 / 0   24.18 GB   2018-12-01 08:57 
   Темні уми / The Darkest Minds (2018)  antik_2008  28 / 0   1.46 GB   2018-12-01 01:45 
Quit_ua 
Новенький


З нами з: 13.08.18
Востаннє: 09.12.18
Повідомлень: 23

2018-10-12 16:20  
фільм для дітей до 7 класу) одні соплі і страждання, а кінець то взагалі фарс...
Anonymous 







2018-10-23 06:14  
Реліз оновлено до 'у
"золото" на тиждень.

patriots 
Свій


З нами з: 26.02.08
Востаннє: 09.12.18
Повідомлень: 108

2018-10-23 09:59  
[b]Quit_ua[/b]
Згоден на 100%

Olegok13 
Новенький


З нами з: 14.11.10
Востаннє: 20.11.18
Повідомлень: 14

2018-11-18 13:35  
Лайняшка 3/10
booritos 
Новенький


З нами з: 13.12.16
Востаннє: 27.11.18
Повідомлень: 6

2018-11-24 14:16  
мені сподобався фільм! думаю буде продовження
Anonymous 







2018-12-01 09:39  
Реліз оновлено 5.1 звуком з блурея
"золото" на тиждень.

Maks Havar 
Новенький


З нами з: 30.11.14
Востаннє: 08.12.18
Повідомлень: 16

2018-12-01 17:10  
Фільм розрахований на підлітків. Загалом цікаво, але після години фільму з'являється бажання вимкнути..
Загалом 6 з 10. На один раз.

hetzendorf 
Попереджень: 1
Попереджень: 1 


З нами з: 23.07.15
Востаннє: 10.12.18
Повідомлень: 1529

2018-12-03 01:56  
Та годі вам, нормальне кіно. Снобам, схибленим на артхаосі, не зрозуміти.
7/10

Ваш часовий пояс: GMT + 2 Години

Нова тема   Відповісти