Скажені перегони / Drive Angry (2011) AVC Ukr/Eng

Нові коментарі

Нова тема   Відповісти
Автор Повідомлення
staf777 
Відео Гуртом - підтримка та поширення
Відео Гуртом - підтримка та поширення


З нами з: 16.11.16
Востаннє: 08.12.19
Повідомлень: 3038

2018-10-11 20:38  
Скажені перегони / Drive Angry (2011) AVC Ukr/Eng

Скажені перегони / Drive Angry (2011) AVC Ukr/Eng


Жанр: екшн, фентезі, триллер
Країна: США



Кінокомпанія: Millennium Films, Nu Image Films, Paradise F.X. Corp., Saturn Films; мейджор – Warner Bros
Режисер: Патрік Люссьє
Актори: Ніколас Кейдж , Ембер Херд , Марк Макколей , Майкл Пападжон , Джек МакГі , Шарлотта Росс , Уільям Фіхтнер , Девід Морс , Біллі Бурк (I) , Кеті Міксон , Кріста Кемпбелл , Прюит Тейлор Винс

Сюжет:
У центрі подій розлючений батько, що йде по сліду негідників, які вбили його дочку і викрали онуку. Головний герой, засліплений жадобою помсти, сідає за кермо автомобіля і відправляється на пошуки вбивць ...

Ніхто не в силі зупинити його: ні кулі, ні смерть, ні навіть сам Диявол.


Тривалість: 01:44:31
Якість: AVC
Відео:
кодек:
розмір кадру: 1024x576
бітрейт: 2750 кб/с

Аудіо # 1:
мова: українська
переклад: професійний дубльований
кодек: 5.1
бітрейт: 384 кб/с

Аудіо # 2:
мова: англійська
переклад: оригінал
кодек: 5.1
бітрейт: 448 кб/с

Джерело озвучення:
Скріншоти





MI
General
Unique ID : 88189509040427176942976003260480808055 (0x4258AE7EEC0B52F812D2FF69638CE477)
Complete name : N:\Drive Angry (2011) AVC [UKR_ENG] [Hurtom].
Format :
Format version : Version 4 / Version 2
File size : 2.62 GiB
Duration : 1 h 44 min
Overall bit rate : 3 584 kb/s
Movie name : Drive Angry (2011) AVC [UKR_ENG] [Hurtom]
Encoded date : UTC 2018-10-11 18:00:14
Writing application : v24.0.0 ('Beyond The Pale') 64-bit
Writing library : libebml v1.3.6 + v1.4.9
Cover : Yes
Attachments : cover.jpg

Video
ID : 1
Format : AVC
Format/Info : Advanced Video Codec
Format profile : [email protected]
Format settings : CABAC / 8 Ref Frames
Format settings, CABAC : Yes
Format settings, ReFrames : 8 frames
Codec ID : V_MPEG4/ISO/AVC
Duration : 1 h 44 min
Bit rate : 2 750 kb/s
Width : 1 024 pixels
Height : 576 pixels
Display aspect ratio : 16:9
Frame rate mode : Constant
Frame rate : 23.976 (24000/1001) FPS
Color space : YUV
Chroma subsampling : 4:2:0
Bit depth : 8 bits
Scan type : Progressive
Bits/(Pixel*Frame) : 0.194
Stream size : 2.01 GiB (77%)
Writing library : core 114 r1924 08d04a4
Encoding settings : cabac=1 / ref=8 / deblock=1:-1:-1 / analyse=0x3:0x133 / me=umh / subme=9 / psy=1 / psy_rd=1.00:0.20 / mixed_ref=1 / me_range=48 / chroma_me=1 / trellis=1 / 8x8dct=1 / cqm=0 / deadzone=21,11 / fast_pskip=0 / chroma_qp_offset=-3 / threads=1 / sliced_threads=0 / nr=0 / decimate=0 / interlaced=0 / constrained_intra=0 / bframes=8 / b_pyramid=2 / b_adapt=2 / b_bias=0 / direct=1 / weightb=1 / open_gop=0 / weightp=2 / keyint=240 / keyint_min=23 / scenecut=40 / intra_refresh=0 / rc_lookahead=90 / rc=2pass / mbtree=1 / bitrate=2750 / ratetol=1.0 / qcomp=0.60 / qpmin=10 / qpmax=51 / qpstep=4 / cplxblur=20.0 / qblur=0.5 / ip_ratio=1.40 / aq=1:1.10
Language : English
Default : No
Forced : No

Audio #1
ID : 2
Format : AC-3
Format/Info : Audio Coding 3
Codec ID : A_AC3
Duration : 1 h 44 min
Bit rate mode : Constant
Bit rate : 384 kb/s
Channel(s) : 6 channels
Channel positions : Front: L C R, Side: L R, LFE
Sampling rate : 48.0 kHz
Frame rate : 31.250 FPS (1536 SPF)
Bit depth : 16 bits
Compression mode : Lossy
Stream size : 287 MiB (11%)
Title : [UA-DUB-DVD]
Language : Ukrainian
Service kind : Complete Main
Default : Yes
Forced : Yes

Audio #2
ID : 3
Format : AC-3
Format/Info : Audio Coding 3
Codec ID : A_AC3
Duration : 1 h 44 min
Bit rate mode : Constant
Bit rate : 448 kb/s
Channel(s) : 6 channels
Channel positions : Front: L C R, Side: L R, LFE
Sampling rate : 48.0 kHz
Frame rate : 31.250 FPS (1536 SPF)
Bit depth : 16 bits
Compression mode : Lossy
Stream size : 335 MiB (12%)
Language : English
Service kind : Complete Main
Default : No
Forced : No
Джерело: &
Особиста оцінка: 8 - мені сподобалося
Скажені перегони / Drive Angry (2011) AVC Ukr/Eng
Скажені перегони / Drive Angry (2011) AVC Ukr/Eng


 Трекер:    Зареєстрований   

Завантажити / скачати фільм українською



відео для новачків



 Зареєстрований:   2018-10-11 20:38
 Розмір:   2.62 GB 
 Оцінка фільму:   7.5/10 (Голосів: 10)
   
Інші релізи
Ваш часовий пояс: GMT + 2 Години

Нова тема   Відповісти