Тiло брехнi / Сукупність брехні / Body of Lies (2008) 1080p 2Ukr/Eng | Sub Eng

Нові коментарі

Нова тема   Відповісти
Автор Повідомлення
staf777 
Попереджень: 1
Попереджень: 1 


З нами з: 16.11.16
Востаннє: 17.12.18
Повідомлень: 1935

2018-10-11 18:04  
Тiло брехнi / Сукупність брехні / Body of Lies (2008) 1080p 2Ukr/Eng | Sub Eng

Тiло брехнi / Сукупність брехні / Body of Lies (2008) 1080p 2Ukr/Eng | Sub Eng


Жанр: екшн, драма, трилер
Країна: США, Велика Британія



Кінокомпанія: Scott Free Productions, De Line Pictures / Warner Bros. Pictures
Режисер: Рідлі Скотт
Актори: Леонардо ДіКапріо / Leonardo DiCaprio, Рассел Кроу / Russell Crowe, Марк Стронг / Mark Strong, Оскар Айзек / Oscar Isaac, Алон Абутбул / Alon Abutbul та інші

Сюжет:
ЦРУ полює на керівника серії терористичних атак. Роджер Ферріс є агентом національної розвідки, він переміщається по всьому світу, намагаючись запобігти будь-яким небажаним подіям. Око в небі, супутник, спостерігає за ним. На іншому кінці цього зв'язку ветеран ЦРУ Ед Хоффман, що відслідковує події здалеку.

Чим ближче підбирається Ферріс до своєї мети, тим виразніше розуміє, що довіра - це одночасно й небезпечна штука, і те єдине, що дозволить йому залишитися в живих.


Тривалість: 02:08:19
Якість: 1080p
Відео:
кодек:
розмір кадру: 1920x800
бітрейт: 11000 кб/с

Аудіо # 1:
мова: українська
переклад: професійний дубльований
кодек: 5.1
бітрейт: 448 кб/с

Аудіо # 2:
мова: українська
переклад: багатоголосий закадровий
кодек: 2.0
бітрейт: 192 кб/с

Аудіо # 3:
мова: англійська
переклад: оригінал
кодек: 5.1
бітрейт: 640 кб/с

Субтитри:
мова: англійська
тип: програмні (м'які)
формат: *.srt
Скріншоти





MI
General
Unique ID : 305463185874341181606343288190645112819 (0xE5CE11D520E0E39EBBE4D4DCCDD50FF3)
Complete name : N:\Body of Lies (2008) 1080p [2xUkr, Eng][Hurtom].
Format :
Format version : Version 4 / Version 2
File size : 11.0 GiB
Duration : 2 h 8 min
Overall bit rate : 12.3 Mb/s
Movie name : Body of Lies (2008) 1080p [2xUkr, Eng][Hurtom]
Encoded date : UTC 2018-10-12 05:27:31
Writing application : v24.0.0 ('Beyond The Pale') 64-bit
Writing library : libebml v1.3.6 + v1.4.9
Cover : Yes
Attachments : cover.jpg

Video
ID : 1
Format : AVC
Format/Info : Advanced Video Codec
Format profile : [email protected]
Format settings : CABAC / 5 Ref Frames
Format settings, CABAC : Yes
Format settings, ReFrames : 5 frames
Codec ID : V_MPEG4/ISO/AVC
Duration : 2 h 8 min
Bit rate : 11.0 Mb/s
Width : 1 920 pixels
Height : 800 pixels
Display aspect ratio : 2.40:1
Frame rate mode : Constant
Frame rate : 23.976 (24000/1001) FPS
Color space : YUV
Chroma subsampling : 4:2:0
Bit depth : 8 bits
Scan type : Progressive
Bits/(Pixel*Frame) : 0.299
Stream size : 9.85 GiB (90%)
Title : Body of Lies.(2008)..1080p.[denis100]
Writing library : core 148 r2638 7599210
Encoding settings : cabac=1 / ref=5 / deblock=1:-3:-3 / analyse=0x3:0x133 / me=umh / subme=11 / psy=1 / psy_rd=1.00:0.05 / mixed_ref=1 / me_range=32 / chroma_me=1 / trellis=2 / 8x8dct=1 / cqm=0 / deadzone=21,11 / fast_pskip=0 / chroma_qp_offset=-3 / threads=6 / lookahead_threads=1 / sliced_threads=0 / nr=0 / decimate=1 / interlaced=0 / bluray_compat=0 / constrained_intra=0 / bframes=8 / b_pyramid=2 / b_adapt=2 / b_bias=0 / direct=3 / weightb=1 / open_gop=0 / weightp=2 / keyint=240 / keyint_min=23 / scenecut=40 / intra_refresh=0 / rc=2pass / mbtree=0 / bitrate=11000 / ratetol=1.0 / qcomp=0.60 / qpmin=0 / qpmax=69 / qpstep=4 / cplxblur=20.0 / qblur=0.5 / ip_ratio=1.40 / pb_ratio=1.30 / aq=2:0.90
Language : English
Default : Yes
Forced : No

Audio #1
ID : 2
Format : AC-3
Format/Info : Audio Coding 3
Codec ID : A_AC3
Duration : 2 h 8 min
Bit rate mode : Constant
Bit rate : 448 kb/s
Channel(s) : 6 channels
Channel positions : Front: L C R, Side: L R, LFE
Sampling rate : 48.0 kHz
Frame rate : 31.250 FPS (1536 SPF)
Bit depth : 16 bits
Compression mode : Lossy
Stream size : 411 MiB (4%)
Title : [UA-DUB]
Language : Ukrainian
Service kind : Complete Main
Default : Yes
Forced : Yes

Audio #2
ID : 3
Format : AC-3
Format/Info : Audio Coding 3
Codec ID : A_AC3
Duration : 2 h 8 min
Bit rate mode : Constant
Bit rate : 192 kb/s
Channel(s) : 2 channels
Channel positions : Front: L R
Sampling rate : 48.0 kHz
Frame rate : 31.250 FPS (1536 SPF)
Bit depth : 16 bits
Compression mode : Lossy
Stream size : 176 MiB (2%)
Title : [UA-MVO]
Language : Ukrainian
Service kind : Complete Main
Default : No
Forced : No

Audio #3
ID : 4
Format : AC-3
Format/Info : Audio Coding 3
Codec ID : A_AC3
Duration : 2 h 8 min
Bit rate mode : Constant
Bit rate : 640 kb/s
Channel(s) : 6 channels
Channel positions : Front: L C R, Side: L R, LFE
Sampling rate : 48.0 kHz
Frame rate : 31.250 FPS (1536 SPF)
Bit depth : 16 bits
Compression mode : Lossy
Stream size : 587 MiB (5%)
Language : English
Service kind : Complete Main
Default : No
Forced : No

Text #1
ID : 5
Format : UTF-8
Codec ID : S_TEXT/UTF8
Codec ID/Info : UTF-8 Plain Text
Duration : 2 h 0 min
Bit rate : 64 b/s
Count of elements : 1471
Stream size : 56.8 KiB (0%)
Title : Full
Language : English
Default : No
Forced : No

Text #2
ID : 6
Format : UTF-8
Codec ID : S_TEXT/UTF8
Codec ID/Info : UTF-8 Plain Text
Duration : 2 h 0 min
Bit rate : 71 b/s
Count of elements : 1726
Stream size : 63.3 KiB (0%)
Title : SDH
Language : English
Default : No
Forced : No

Menu
00:00:00.000 : en:Now They Will Bleed
00:03:08.188 : en:Our Enemy
00:06:53.871 : en:Reluctant Martyr
00:12:32.960 : en:Cut Him Loose
00:16:10.719 : en:You Do Know We're at War
00:18:41.578 : en:High-Value Targets
00:26:49.107 : en:See You on the Way Down
00:30:44.634 : en:Hani's Rule
00:34:10.590 : en:Cover Blown
00:39:22.401 : en:Punishment
00:41:48.506 : en:Amsterdam Strike
00:44:08.312 : en:A Man Inside
00:48:10.012 : en:No Reciprocity
00:52:48.957 : en:Elusive Quarry
00:56:01.524 : en:Apart From His Job
01:00:10.690 : en:Hani's Ultimatum
01:03:56.749 : en:What If?
01:07:02.852 : en:Straw Man
01:09:53.814 : en:Setting up Sadiki
01:14:44.229 : en:Return to Jordan
01:17:20.427 : en:Family Lunch
01:22:43.249 : en:In Business
01:24:49.709 : en:Implementing Fig Orchard
01:28:14.914 : en:Eyes on Sadiki
01:31:36.324 : en:About This American
01:35:20.005 : en:In the Picture
01:40:17.803 : en:Trading for Aisha
01:43:22.696 : en:Sorry, Buddy
01:46:48.985 : en:The Light Is on You
01:52:50.430 : en:In the Name of God
01:55:17.535 : en:First Visitor
01:58:11.125 : en:Nobody's Innocent
02:01:50.594 : en:End Credits

Запис з ТБ (Аудіо # 2): MAKAPOHHIK
Синхронізація : patriot2305
Постер: xslim
Джерело: &
Особиста оцінка: 0 - не дивився
Тiло брехнi / Сукупність брехні / Body of Lies (2008) 1080p 2Ukr/Eng | Sub Eng
Тiло брехнi / Сукупність брехні / Body of Lies (2008) 1080p 2Ukr/Eng | Sub Eng


 Трекер:    Зареєстрований   

Завантажити / скачати фільм українською



відео для новачків



 Зареєстрований:   2018-10-12 08:21
 Розмір:   11 GB 
 Оцінка фільму:   6.2/10 (Голосів: 5)
   
bot 
робот


З нами з: 30.09.07
Востаннє: 26.05.05
Повідомлень: 20361

2018-10-12 08:21  
Тему перенесено з Анонси релізів до форуму Фільми в HD


staf777

kryk-v.ya. 
VIP


З нами з: 14.02.14
Востаннє: 17.12.18
Повідомлень: 740

2018-10-12 15:02  
Офігенний фільм,дякую.
Ваш часовий пояс: GMT + 2 Години

Нова тема   Відповісти