Спадковість / Hereditary (2018) 720p Eng | Sub Ukr/Eng

Нові коментарі

Нова тема   Відповісти
Автор Повідомлення
Anonymous 







2018-10-10 20:59  
Спадковість / Hereditary (2018) 720p Eng | Sub Ukr/Eng

Альтернативні український та оригінальні постери:







Жанр: жахи, трилер, драма, детектив
Країна: США



Кінокомпанія: PalmStar Media
Режисер: Арі Астер / Ari Aster
Актори: Тоні Коллетт / Toni Collette, Ґебріел Бірн / Gabriel Byrne, Алекс Вулф / Alex Wolff, Міллі Шапіро / Milly Shapiro, Енн Дауд / Ann Dowd, Меллорі Бехтел / Mallory Bechtel, Джейк Браун / Jake Brown, Закарі Артур / Zachary Arthur, Остін Р. Грант / Austin R. Grant, Марк Блокович / Mark Blockovich, Джон Форкер / John Forker та інші

Сюжет:
Коли Еллен йде з життя, її рідні доньки починають поступово дізнаватися і розгадувати жахливі таємниці свого походження. І чим більше вони дізнаються, тим сильніше бажання змінити свою зловісну долю, яка дісталася їм у спадок.
Офіційний український трейлер:


Рейтинг MPAA: R - особам до 17 років обов'язкова присутність батьків або дорослого опікуна
Вікова категорія: 16+

Тривалість: 02:07:26
Якість: 720p
Відео:
кодек:
розмір кадру: 1280х640
бітрейт: 4800 кб/с

Аудіо # -1:
мова: українська
переклад: професійний дубльований?
примітка: фільм був в українському прокаті з українським дубляжем чи озвученням, щодо української доріжки звертайтесь до представників правовласника та у сервіси дистрибуції, наприклад на Меґоґо, щоб вони додали її.


Аудіо # 1:
мова: англійська
переклад: оригінал
кодек: 5.1
бітрейт: 640 кб/с

Субтитри # 1:
мова: українська
тип: програмні (м'які)
формат: *.srt
переклад: любительський, імовірно з російської - JoRi, GT [спільнота SubAutumn], редагування/коригування - igor911
примітка: крім присутніх у контейнері, ці субтитри також додано окремим файлом

Субтитри # 2:
мова: англійська
тип: програмні (м'які)
формат: *.srt

Збережено оригінальні розділи, як на Blu-ray
Info
Код:
Complete name               : Hereditary (2018) [Eng sub.Ukr,Eng] 720p [Hurtom].
Format                      :
Format version              : Version 4
File size                   : 4.84 GiB
Duration                    : 2 h 7 min
Overall bit rate            : 5 441 kb/s
Movie name                  : Спадковість / Hereditary (2018) [Eng sub.Ukr,Eng] 720p [Hurtom]
Encoded date                : UTC 2018-10-10 19:14:49
Writing application         : v27.0.0 ('Metropolis') 64-bit
Writing library             : libebml v1.3.6 + v1.4.9
Cover                       : Yes
Attachments                 : cover.jpg

Video
ID                          : 1
Format                      : AVC
Format/Info                 : Advanced Video Codec
Format profile              : [email protected]
Format settings             : CABAC / 10 Ref Frames
Format settings, CABAC      : Yes
Format settings, ReFrames   : 10 frames
Codec ID                    : V_MPEG4/ISO/AVC
Duration                    : 2 h 7 min
Bit rate                    : 4 800 kb/s
Width                       : 1 280 pixels
Height                      : 640 pixels
Display aspect ratio        : 2.000
Frame rate mode             : Constant
Frame rate                  : 23.976 (24000/1001) FPS
Color space                 : YUV
Chroma subsampling          : 4:2:0
Bit depth                   : 8 bits
Scan type                   : Progressive
Bits/(Pixel*Frame)          : 0.244
Stream size                 : 4.27 GiB (88%)
Title                       : Спадковість / Hereditary (2018) 720p [ExKinoRay]
Writing library             : core 148 r2665kMod a01e339
Encoding settings           : cabac=1 / ref=10 / deblock=1:-3:-3 / analyse=0x3:0x133 / me=umh / subme=11 / psy=1 / fade_compensate=0.00 / psy_rd=1.05:0.00 / mixed_ref=1 / me_range=32 / chroma_me=1 / trellis=2 / 8x8dct=1 / cqm=0 / deadzone=21,11 / fast_pskip=0 / chroma_qp_offset=-2 / threads=20 / lookahead_threads=3 / sliced_threads=0 / nr=0 / decimate=0 / interlaced=0 / bluray_compat=0 / constrained_intra=0 / fgo=0 / bframes=8 / b_pyramid=2 / b_adapt=2 / b_bias=0 / direct=3 / weightb=1 / open_gop=0 / weightp=2 / keyint=240 / keyint_min=24 / scenecut=40 / intra_refresh=0 / rc=2pass / mbtree=0 / bitrate=4800 / ratetol=1.0 / qcomp=0.70 / qpmin=0 / qpmax=69 / qpstep=4 / cplxblur=20.0 / qblur=0.5 / ip_ratio=1.20 / pb_ratio=1.20 / aq=3:0.85
Language                    : English
Default                     : Yes
Forced                      : No

Audio
ID                          : 2
Format                      : AC-3
Format/Info                 : Audio Coding 3
Commercial name             : Dolby Digital
Codec ID                    : A_AC3
Duration                    : 2 h 7 min
Bit rate mode               : Constant
Bit rate                    : 640 kb/s
Channel(s)                  : 6 channels
Channel layout              : L R C LFE Ls Rs
Sampling rate               : 48.0 kHz
Frame rate                  : 31.250 FPS (1536 SPF)
Bit depth                   : 16 bits
Compression mode            : Lossy
Stream size                 : 583 MiB (12%)
Title                       : Original, 5.1 640 Kbps
Language                    : English
Service kind                : Complete Main
Default                     : Yes
Forced                      : No

Text #1
ID                          : 3
Format                      : UTF-8
Codec ID                    : S_TEXT/UTF8
Codec ID/Info               : UTF-8 Plain Text
Duration                    : 2 h 0 min
Bit rate                    : 55 b/s
Count of elements           : 1017
Stream size                 : 48.6 KiB (0%)
Title                       : Ukr Full [t.me/subautumn], edited by igor911
Language                    : Ukrainian
Default                     : Yes
Forced                      : Yes

Text #2
ID                          : 4
Format                      : UTF-8
Codec ID                    : S_TEXT/UTF8
Codec ID/Info               : UTF-8 Plain Text
Duration                    : 2 h 0 min
Bit rate                    : 33 b/s
Count of elements           : 1014
Stream size                 : 29.4 KiB (0%)
Title                       : Eng full
Language                    : English
Default                     : No
Forced                      : No

Menu
00:00:00.000                : en:00:00:00.000
00:06:03.321                : en:00:06:03.321
00:13:34.147                : en:00:13:34.147
00:23:01.130                : en:00:23:01.130
00:26:31.173                : en:00:26:31.173
00:34:57.762                : en:00:34:57.762
00:40:56.496                : en:00:40:56.496
00:47:23.090                : en:00:47:23.090
00:54:34.396                : en:00:54:34.396
01:04:02.881                : en:01:04:02.881
01:08:55.631                : en:01:08:55.631
01:19:35.854                : en:01:19:35.854
01:25:09.396                : en:01:25:09.396
01:32:50.315                : en:01:32:50.315
01:40:01.412                : en:01:40:01.412
01:53:21.378                : en:01:53:21.378




Джерело: & &
* у випадку появи української доріжки реліз буде оновлено


Золотий реліз (завантажене не впливає на рейтинг)
 Трекер:    Зареєстрований   

Завантажити / скачати фільм українською



відео для новачків



 Зареєстрований:   2018-10-10 21:30
 Розмір:   4.84 GB 
 Оцінка фільму:   9.3/10 (Голосів: 4)
 ЗАЛИШАЙТЕСЬ ЯКОМОГА ДОВШЕ НА РОЗДАЧІ! ЗАВАНТАЖИВ САМ - ДАЙ ЗАВАНТАЖИТИ ІНШИМ
   
Інші релізи
   Спадковість / Hereditary (2018) AVC Eng | Sub Ukr/Eng igor911  10 / 2   2.19 GB   2018-10-10 20:49 
Ваш часовий пояс: GMT + 2 Години

Нова тема   Відповісти