451 градус за Фаренгейтом / Fahrenheit 451 (2018) 1080p H.265 Ukr/Eng | Sub Eng

Нові коментарі

Нова тема   Відповісти
Автор Повідомлення
-Star-Lord- 
Поважний учасник


З нами з: 09.08.18
Востаннє: 17.10.18
Повідомлень: 197

2018-10-10 21:16  
451 градус за Фаренгейтом / Fahrenheit 451 (2018) 1080p H.265 Ukr/Eng | Sub Eng

451 градус за Фаренгейтом / Fahrenheit 451 (2018) 1080p H.265 Ukr/Eng | Sub Eng


Жанр: драма, фантастика
Країна: США



Кінокомпанія: HBO Films
Режисер: Рамін Баграні / Ramin Bahrani
Актори: Майкл Б. Джордан / Michael B. Jordan, Майкл Шеннон / Michael Shannon, Софія Бутелла / Sofia Boutella, Сінді Кац / Cindy Katz, Мейко Нвуен / Mayko Nguyen, Ділан Тейлор / Dylan Taylor, Кір Дуллі / Keir Dullea, Мартін Донован / Martin Donovan, Джо Пінґ / Joe Pingue та інші

Сюжет:
В жахливо безтурботному майбутньому молодий хлопець на ім’я Гай Монтег працює пожежником, чиїм службовим обов’язком є спалення книг. Але після зустрічі з молодою дівчиною Клариссою МакКлеллан він починає піддавати сумнівам правильність своїх дій і стає бунтарем проти встановленого режиму.


Тривалість: 01:40:21
Якість: (Власний Rip)
Відео:
кодек: H.265 (HEVC)
розмір кадру: 1920 х 1080
бітрейт: 5 121 кб/с
бітова глибина: 10 біт
Увага! Перед завантаженням переконайтесь, що ваш пристрій відтворення (та/або ПЗ) підтримує H.265 (HEVC)

Аудіо # 1:
мова: українська
переклад: багатоголосий закадровий
кодек: 5.1
бітрейт: 448 кб/с

Аудіо # 2:
мова: англійська
переклад: оригінал
кодек: E- 5.1
бітрейт: 640 кб/с

Субтитри # 1:
мова: українська (Forced)
тип: програмні (м'які)
формат: *.srt

Субтитри # 2-3:
мова: англійська (Full, SDH)
тип: програмні (м'які)
формат: *.srt


Info
Код:
General
Unique ID                                : 97758217372197811969385396237356749262 (0x498B8C3D959A9E17493CCF4D24CFD1CE)
Complete name                            : F:\Video\Fahrenheit 451 (2018) 1080p H.265 [UKR_ENG].
Format                                   :
Format version                           : Version 4 / Version 2
File size                                : 4.35 GiB
Duration                                 : 1 h 40 min
Overall bit rate                         : 6 211 kb/s
Movie name                               : Fahrenheit 451 (2018) - Rip by -Star-Lord-
Encoded date                             : UTC 2018-10-10 16:35:24
Writing application                      : v20.0.0 ('I Am The Sun') 32-bit
Writing library                          : libebml v1.3.5 + v1.4.8
Cover                                    : Yes
Attachments                              : cover.jpg

Video
ID                                       : 1
Format                                   : HEVC
Format/Info                              : High Efficiency Video Coding
Format profile                           : Main [email protected]@High
Codec ID                                 : V_MPEGH/ISO/HEVC
Duration                                 : 1 h 40 min
Bit rate                                 : 5 121 kb/s
Width                                    : 1 920 pixels
Height                                   : 1 080 pixels
Display aspect ratio                     : 16:9
Frame rate mode                          : Constant
Frame rate                               : 23.976 (24000/1001) FPS
Color space                              : YUV
Chroma subsampling                       : 4:2:0
Bit depth                                : 10 bits
Bits/(Pixel*Frame)                       : 0.103
Stream size                              : 3.59 GiB (82%)
Title                                    : Rip by -Star-Lord-
Writing library                          : x265 2.8+19-bcdc610cf5f0:[Windows][GCC 7.3.0][64 bit] 10bit
Encoding settings                        : cpuid=1111039 / frame-threads=5 / numa-pools=4 / wpp / no-pmode / no-pme / no-psnr / no-ssim / log-level=3 / input-csp=1 / input-res=1920x1080 / interlace=0 / total-frames=0 / level-idc=51 / high-tier=1 / uhd-bd=0 / ref=5 / allow-non-conformance / no-repeat-headers / annexb / no-aud / no-hrd / info / hash=0 / no-temporal-layers / open-gop / min-keyint=23 / keyint=240 / gop-lookahead=0 / bframes=8 / b-adapt=2 / b-pyramid / bframe-bias=0 / rc-lookahead=60 / lookahead-slices=6 / scenecut=40 / radl=0 / no-intra-refresh / ctu=64 / min-cu-size=8 / no-rect / no-amp / max-tu-size=32 / tu-inter-depth=3 / tu-intra-depth=3 / limit-tu=0 / rdoq-level=0 / dynamic-rd=0.00 / no-ssim-rd / signhide / no-tskip / nr-intra=0 / nr-inter=0 / no-constrained-intra / no-strong-intra-smoothing / max-merge=2 / limit-refs=3 / no-limit-modes / me=3 / subme=7 / merange=57 / temporal-mvp / weightp / weightb / no-analyze-src-pics / deblock=-3:-3 / no-sao / no-sao-non-deblock / rd=3 / no-early-skip / rskip / no-fast-intra / no-tskip-fast / no-cu-lossless / no-b-intra / no-splitrd-skip / rdpenalty=0 / psy-rd=2.00 / psy-rdoq=0.00 / no-rd-refine / no-lossless / cbqpoffs=0 / crqpoffs=0 / rc=crf / crf=19.0 / qcomp=0.75 / qpstep=4 / stats-write=0 / stats-read=0 / vbv-maxrate=50000 / vbv-bufsize=50000 / vbv-init=0.9 / crf-max=0.0 / crf-min=0.0 / ipratio=1.40 / pbratio=1.30 / aq-mode=1 / aq-strength=1.00 / cutree / zone-count=0 / no-strict-cbr / qg-size=32 / no-rc-grain / qpmax=69 / qpmin=0 / no-const-vbv / sar=1 / overscan=0 / videoformat=5 / range=0 / colorprim=2 / transfer=2 / colormatrix=2 / chromaloc=0 / display-window=0 / max-cll=0,0 / min-luma=0 / max-luma=1023 / log2-max-poc-lsb=8 / vui-timing-info / vui-hrd-info / slices=1 / no-opt-qp-pps / no-opt-ref-list-length-pps / no-multi-pass-opt-rps / scenecut-bias=0.05 / no-opt-cu-delta-qp / no-aq-motion / no-hdr / no-hdr-opt / no-dhdr10-opt / no-idr-recovery-sei / analysis-reuse-level=5 / scale-factor=0 / refine-intra=0 / refine-inter=0 / refine-mv=0 / no-limit-sao / ctu-info=0 / no-lowpass-dct / refine-mv-type=0 / copy-pic=1 / max-ausize-factor=1.0 / no-dynamic-refine / no-single-sei
Language                                 : English
Default                                  : Yes
Forced                                   : No

Audio #1
ID                                       : 2
Format                                   : AC-3
Format/Info                              : Audio Coding 3
Codec ID                                 : A_AC3
Duration                                 : 1 h 40 min
Bit rate mode                            : Constant
Bit rate                                 : 448 kb/s
Channel(s)                               : 6 channels
Channel positions                        : Front: L C R, Side: L R, LFE
Sampling rate                            : 48.0 kHz
Frame rate                               : 31.250 FPS (1536 SPF)
Bit depth                                : 16 bits
Compression mode                         : Lossy
Stream size                              : 321 MiB (7%)
Title                                    : MVO [Dzuski.com], 5.1 448 Kbps
Language                                 : Ukrainian
Service kind                             : Complete Main
Default                                  : Yes
Forced                                   : No

Audio #2
ID                                       : 3
Format                                   : E-AC-3
Format/Info                              : Enhanced Audio Coding 3
Codec ID                                 : A_EAC3
Duration                                 : 1 h 40 min
Bit rate mode                            : Constant
Bit rate                                 : 640 kb/s
Channel(s)                               : 6 channels
Channel positions                        : Front: L C R, Side: L R, LFE
Sampling rate                            : 48.0 kHz
Frame rate                               : 187.500 FPS (256 SPF)
Compression mode                         : Lossy
Delay relative to video                  : 6 s 16 ms
Stream size                              : 459 MiB (10%)
Title                                    : Original, E- 5.1 640 Kbps
Language                                 : English
Service kind                             : Complete Main
Default                                  : No
Forced                                   : No

Text #1
ID                                       : 4
Format                                   : UTF-8
Codec ID                                 : S_TEXT/UTF8
Codec ID/Info                            : UTF-8 Plain Text
Duration                                 : 1 h 39 min
Bit rate                                 : 3 b/s
Count of elements                        : 57
Stream size                              : 2.37 KiB (0%)
Title                                    : Forced
Language                                 : Ukrainian
Default                                  : Yes
Forced                                   : Yes

Text #2
ID                                       : 5
Format                                   : UTF-8
Codec ID                                 : S_TEXT/UTF8
Codec ID/Info                            : UTF-8 Plain Text
Duration                                 : 1 h 32 min
Bit rate                                 : 49 b/s
Count of elements                        : 1072
Stream size                              : 33.8 KiB (0%)
Title                                    : Full
Language                                 : English
Default                                  : No
Forced                                   : No

Text #3
ID                                       : 6
Format                                   : UTF-8
Codec ID                                 : S_TEXT/UTF8
Codec ID/Info                            : UTF-8 Plain Text
Duration                                 : 1 h 34 min
Bit rate                                 : 52 b/s
Count of elements                        : 1176
Stream size                              : 36.7 KiB (0%)
Title                                    : SDH
Language                                 : English
Default                                  : No
Forced                                   : No

Menu
00:00:00.000                             : :Chapter 1
00:02:32.152                             : :Chapter 2
00:11:46.873                             : :Chapter 3
00:20:31.856                             : :Chapter 4
00:26:28.504                             : :Chapter 5
00:35:54.152                             : :Chapter 6
00:44:01.806                             : :Chapter 7
00:52:45.204                             : :Chapter 8
01:01:59.507                             : :Chapter 9
01:08:23.265                             : :Chapter 10
01:17:46.996                             : :Chapter 11
01:27:06.054                             : :Chapter 12
01:37:54.368                             : :Chapter 13
Скріншоти




Джерело:
Особиста оцінка: 0 - не дивився


Авторський реліз (завантажувати можна без реєстрації)
 Трекер:    Зареєстрований   

Завантажити / скачати фільм українською



відео для новачків



 Зареєстрований:   2018-10-10 21:16
 Розмір:   4.35 GB 
 Оцінка фільму:   7.6/10 (Голосів: 5)
   
oberezny 
Свій


З нами з: 03.10.12
Востаннє: 16.10.18
Повідомлень: 74

2018-10-11 02:20  
В'єтнамське за походженням прізвище Nguyen (Nguyễn) українською - та й будь якою иншою - вимовляється як Нвуен, де «в» є дзвінким губно-м'якопіднебінним апроксимантом [w], як «в» у словах «лев (леў)» і «Київ (Киїў)» чи друге «в» у словах «вовк (воўк)» та «Львів (Львіў)».
Siegfried 
Поважний учасник


З нами з: 01.11.11
Востаннє: 16.10.18
Повідомлень: 198

2018-10-12 12:09  
oberezny написано:
В'єтнамське за походженням прізвище Nguyen (Nguyễn) українською - та й будь якою иншою - вимовляється як Нвуен, де «в» є дзвінким губно-м'якопіднебінним апроксимантом [w], як «в» у словах «лев (леў)» і «Київ (Киїў)» чи друге «в» у словах «вовк (воўк)» та «Львів (Львіў)».


Коли "будь якою" будемо вірно писати ? Чи ти дефіси не любиш ?

Ваш часовий пояс: GMT + 2 Години

Нова тема   Відповісти