Вікі Крістіна Барселона / Vicky Cristina Barcelona (2008) 1080p 2хUkr/Eng | Sub Eng

Нові коментарі

Нова тема   Відповісти
Автор Повідомлення
staf777 
Попереджень: 1
Попереджень: 1 


З нами з: 16.11.16
Востаннє: 13.12.18
Повідомлень: 1909

2018-10-10 20:10  
Вікі Крістіна Барселона / Vicky Cristina Barcelona (2008) 1080p 2хUkr/Eng | Sub Eng

Вікі Крістіна Барселона / Vicky Cristina Barcelona (2008) 1080p 2хUkr/Eng | Sub Eng


Жанр: драма, мелодрама
Країна: США, Іспанія



Кінокомпанія: Antena 3 Films, Antena 3 Televisión, Gravier Productions, Mediapro
Режисер: Вуді Аллен (Woody Allen)
Актори: Ребекка Голл (Rebecca Hall), Скарлетт Йоганссон (Scarlett Johansson), Хав'єр Бардем (Javier Bardem), Пенелопа Круз (Penélope Cruz), Крістофер Еван Велч (Christopher Evan Welch) та інші.

Сюжет:
Любовний трикутник, або, скоріше, квадрат створив в своєму новому фільмі знаменитий Вуді Аллен. Американки Віки (Ребекка Голл) і Крістіна (Скарлетт Йоганссон) приїжджають до Барселони. У них дещо різні погляди на життя, але кожна не проти розважитися на свій лад. І це їм вдається після знайомства на одній з виставок з іспанським художником Антоніо (Хав’ер Бардем). Їх розваги стають різноманітнішими, а відносини складнішими, коли на сцені з’являється колишня дружина Антоніо (Пенелопа Круз), яка не збирається повністю здавати своїх позицій.


Тривалість: 01:36:44
Якість: 1080p
Відео:
кодек:
розмір кадру: 1920x1038
бітрейт: 15,3 Mб/с

Аудіо # 1:
мова: українська
переклад: професійний дубльований
кодек: 2.0
бітрейт: 192 кб/с

Аудіо # 2:
мова: українська
переклад: багатоголосий закадровий
кодек: 2.0
бітрейт: 192 кб/с

Аудіо # 3:
мова: англійська
переклад: оригінал
кодек: 5.1
бітрейт: 1509 кб/с

Субтитри:
мова: англійська
тип: програмні (м'які)
формат: *.srt
Info
General
Unique ID : 323100332830053273337067900973121164801 (0xF312DC508952959E4D3A0DA28F0E5601)
Complete name : N:\Фільми HD\Драма\Vicky Cristina Barcelona (2008) 1080p [2xUA][ENG][Hurtom].
Format :
Format version : Version 4 / Version 2
File size : 11.6 GiB
Duration : 1 h 36 min
Overall bit rate : 17.2 Mb/s
Movie name : Vicky Cristina Barcelona (2008) 1080p [2xUA][ENG][Hurtom]
Encoded date : UTC 2018-10-12 04:32:17
Writing application : v24.0.0 ('Beyond The Pale') 64-bit
Writing library : libebml v1.3.6 + v1.4.9
Cover : Yes
Attachments : cover.jpg

Video
ID : 1
Format : AVC
Format/Info : Advanced Video Codec
Format profile : [email protected]
Format settings : CABAC / 4 Ref Frames
Format settings, CABAC : Yes
Format settings, ReFrames : 4 frames
Codec ID : V_MPEG4/ISO/AVC
Duration : 1 h 36 min
Bit rate : 15.3 Mb/s
Width : 1 920 pixels
Height : 1 038 pixels
Display aspect ratio : 1.85:1
Frame rate mode : Constant
Frame rate : 23.976 (24000/1001) FPS
Color space : YUV
Chroma subsampling : 4:2:0
Bit depth : 8 bits
Scan type : Progressive
Bits/(Pixel*Frame) : 0.321
Stream size : 10.4 GiB (89%)
Writing library : core 146 r2538 121396c
Encoding settings : cabac=1 / ref=4 / deblock=1:-1:-1 / analyse=0x3:0x113 / me=umh / subme=10 / psy=1 / psy_rd=1.00:0.15 / mixed_ref=1 / me_range=32 / chroma_me=1 / trellis=2 / 8x8dct=1 / cqm=0 / deadzone=21,11 / fast_pskip=0 / chroma_qp_offset=-3 / threads=6 / lookahead_threads=1 / sliced_threads=0 / nr=0 / decimate=1 / interlaced=0 / bluray_compat=0 / constrained_intra=0 / bframes=8 / b_pyramid=2 / b_adapt=2 / b_bias=0 / direct=1 / weightb=0 / open_gop=0 / weightp=2 / keyint=230 / keyint_min=23 / scenecut=40 / intra_refresh=0 / rc_lookahead=40 / rc=crf / mbtree=0 / crf=17.0 / qcomp=0.60 / qpmin=0 / qpmax=69 / qpstep=4 / vbv_maxrate=50000 / vbv_bufsize=62500 / crf_max=0.0 / nal_hrd=none / filler=0 / ip_ratio=1.40 / pb_ratio=1.30 / aq=1:1.00
Language : English
Default : Yes
Forced : No

Audio #1
ID : 2
Format : AC-3
Format/Info : Audio Coding 3
Codec ID : A_AC3
Duration : 1 h 36 min
Bit rate mode : Constant
Bit rate : 192 kb/s
Channel(s) : 2 channels
Channel positions : Front: L R
Sampling rate : 48.0 kHz
Frame rate : 31.250 FPS (1536 SPF)
Bit depth : 16 bits
Compression mode : Lossy
Stream size : 133 MiB (1%)
Title : [UA-DUB-TET]
Language : Ukrainian
Service kind : Complete Main
Default : Yes
Forced : Yes

Audio #2
ID : 3
Format : AC-3
Format/Info : Audio Coding 3
Codec ID : A_AC3
Duration : 1 h 36 min
Bit rate mode : Constant
Bit rate : 192 kb/s
Channel(s) : 2 channels
Channel positions : Front: L R
Sampling rate : 48.0 kHz
Frame rate : 31.250 FPS (1536 SPF)
Bit depth : 16 bits
Compression mode : Lossy
Stream size : 133 MiB (1%)
Title : [UA-MVO-K1]
Language : Ukrainian
Service kind : Complete Main
Default : No
Forced : No

Audio #3
ID : 4
Format :
Format/Info : Digital Theater Systems
Codec ID : A_DTS
Duration : 1 h 36 min
Bit rate mode : Constant
Bit rate : 1 509 kb/s
Channel(s) : 3 channels
Channel positions : Front: L C R
Sampling rate : 48.0 kHz
Frame rate : 93.750 FPS (512 SPF)
Bit depth : 16 bits
Compression mode : Lossy
Stream size : 1.02 GiB (9%)
Title : original
Language : English
Default : No
Forced : No

Text
ID : 5
Format : UTF-8
Codec ID : S_TEXT/UTF8
Codec ID/Info : UTF-8 Plain Text
Duration : 1 h 31 min
Bit rate : 84 b/s
Count of elements : 1720
Stream size : 56.3 KiB (0%)
Language : English
Default : No
Forced : No

Menu
00:00:00.000 : :Chapter 01
00:05:09.433 : :Chapter 02
00:12:36.588 : :Chapter 03
00:15:00.608 : :Chapter 04
00:18:31.484 : :Chapter 05
00:22:49.409 : :Chapter 06
00:28:46.056 : :Chapter 07
00:35:29.460 : :Chapter 08
00:40:17.873 : :Chapter 09
00:46:00.257 : :Chapter 10
00:48:06.007 : :Chapter 11
00:55:42.797 : :Chapter 12
01:02:37.211 : :Chapter 13
01:08:12.796 : :Chapter 14
01:12:42.316 : :Chapter 15
01:20:48.510 : :Chapter 16
01:26:53.457 : :Chapter 17
01:33:22.595 : :Chapter 18
01:36:44.215 : :Chapter 19
Скріншоти




Подяка:
Пану xslim та пану robotron005 за доріжки
Джерело: &
Особиста оцінка: 8 - мені сподобалося

Вікі Крістіна Барселона / Vicky Cristina Barcelona (2008) 1080p 2хUkr/Eng | Sub Eng

Вікі Крістіна Барселона / Vicky Cristina Barcelona (2008) 1080p 2хUkr/Eng | Sub Eng


 Трекер:    Зареєстрований   

Завантажити / скачати фільм українською



відео для новачків



 Зареєстрований:   2018-10-12 07:23
 Розмір:   11.63 GB 
 Оцінка фільму:   8.4/10 (Голосів: 7)
   
Ваш часовий пояс: GMT + 2 Години

Нова тема   Відповісти