Вікі Крістіна Барселона / Vicky Cristina Barcelona (2008) AVC 2хUkr/Eng | Sub Eng

Нові коментарі

Нова тема   Відповісти
Автор Повідомлення
staf777 
Відео Гуртом - підтримка та поширення
Відео Гуртом - підтримка та поширення


З нами з: 16.11.16
Востаннє: 18.10.19
Повідомлень: 2989

2018-10-10 21:05  
Вікі Крістіна Барселона / Vicky Cristina Barcelona (2008) AVC 2хUkr/Eng | Sub Eng

Вікі Крістіна Барселона / Vicky Cristina Barcelona (2008) AVC 2хUkr/Eng | Sub Eng


Жанр: драма, мелодрама
Країна: США, Іспанія



Кінокомпанія: Antena 3 Films, Antena 3 Televisión, Gravier Productions, Mediapro
Режисер: Вуді Аллен (Woody Allen)
Актори: Ребекка Голл (Rebecca Hall), Скарлетт Йоганссон (Scarlett Johansson), Хав'єр Бардем (Javier Bardem), Пенелопа Круз (Penélope Cruz), Крістофер Еван Велч (Christopher Evan Welch) та інші.

Сюжет:
Любовний трикутник, або, скоріше, квадрат створив в своєму новому фільмі знаменитий Вуді Аллен. Американки Віки (Ребекка Голл) і Крістіна (Скарлетт Йоганссон) приїжджають до Барселони. У них дещо різні погляди на життя, але кожна не проти розважитися на свій лад. І це їм вдається після знайомства на одній з виставок з іспанським художником Антоніо (Хав’ер Бардем). Їх розваги стають різноманітнішими, а відносини складнішими, коли на сцені з’являється колишня дружина Антоніо (Пенелопа Круз), яка не збирається повністю здавати своїх позицій.


Тривалість: 01:36:44
Якість: AVC
Відео:
кодек:
розмір кадру: 1024x560
бітрейт: 2335 кб/с

Аудіо # 1:
мова: українська
переклад: професійний дубльований
кодек: 2.0
бітрейт: 192 кб/с

Аудіо # 2:
мова: українська
переклад: багатоголосий закадровий
кодек: 2.0
бітрейт: 192 кб/с

Аудіо # 3:
мова: англійська
переклад: оригінал
кодек: 5.1
бітрейт: 448 кб/с

Субтитри:
мова: англійська
тип: програмні (м'які)
формат: *.srt
Скріншоти




MI
General
Unique ID : 40175261773681684788621107325019339033 (0x1E397955ECA840CCA6144DB3677BB919)
Complete name : N:\Vicky Christina Barcelona (2008) AVC [2xUKR_ENG] [Hurtom].
Format :
Format version : Version 4 / Version 2
File size : 2.14 GiB
Duration : 1 h 36 min
Overall bit rate : 3 168 kb/s
Movie name : Vicky Christina Barcelona (2008) AVC [2xUKR_ENG] [Hurtom]
Encoded date : UTC 2018-10-10 17:39:12
Writing application : v24.0.0 ('Beyond The Pale') 64-bit
Writing library : libebml v1.3.6 + v1.4.9
Cover : Yes
Attachments : cover.jpg

Video
ID : 1
Format : AVC
Format/Info : Advanced Video Codec
Format profile : [email protected]
Format settings : CABAC / 8 Ref Frames
Format settings, CABAC : Yes
Format settings, ReFrames : 8 frames
Codec ID : V_MPEG4/ISO/AVC
Duration : 1 h 36 min
Bit rate : 2 335 kb/s
Width : 1 024 pixels
Height : 560 pixels
Display aspect ratio : 1.85:1
Frame rate mode : Constant
Frame rate : 23.976 FPS
Color space : YUV
Chroma subsampling : 4:2:0
Bit depth : 8 bits
Scan type : Progressive
Bits/(Pixel*Frame) : 0.170
Stream size : 1.58 GiB (74%)
Title : Vicky Christina Barcelona (2008)
Writing library : core 110 r1820 fdcf2ae
Encoding settings : cabac=1 / ref=8 / deblock=1:-3:-3 / analyse=0x3:0x133 / me=umh / subme=9 / psy=1 / psy_rd=1.00:0.00 / mixed_ref=1 / me_range=32 / chroma_me=1 / trellis=2 / 8x8dct=1 / cqm=0 / deadzone=21,11 / fast_pskip=0 / chroma_qp_offset=-4 / threads=3 / sliced_threads=0 / nr=0 / decimate=1 / interlaced=0 / constrained_intra=0 / bframes=4 / b_pyramid=2 / b_adapt=2 / b_bias=0 / direct=3 / weightb=1 / open_gop=0 / weightp=2 / keyint=250 / keyint_min=23 / scenecut=40 / intra_refresh=0 / rc_lookahead=60 / rc=2pass / mbtree=1 / bitrate=2335 / ratetol=1.0 / qcomp=0.60 / qpmin=10 / qpmax=51 / qpstep=4 / cplxblur=20.0 / qblur=0.5 / ip_ratio=1.40 / aq=1:1.00
Language : English
Default : Yes
Forced : No

Audio #1
ID : 2
Format : AC-3
Format/Info : Audio Coding 3
Codec ID : A_AC3
Duration : 1 h 36 min
Bit rate mode : Constant
Bit rate : 192 kb/s
Channel(s) : 2 channels
Channel positions : Front: L R
Sampling rate : 48.0 kHz
Frame rate : 31.250 FPS (1536 SPF)
Bit depth : 16 bits
Compression mode : Lossy
Stream size : 133 MiB (6%)
Title : [UA-DUB-TET]
Language : Ukrainian
Service kind : Complete Main
Default : Yes
Forced : Yes

Audio #2
ID : 3
Format : AC-3
Format/Info : Audio Coding 3
Codec ID : A_AC3
Duration : 1 h 36 min
Bit rate mode : Constant
Bit rate : 192 kb/s
Channel(s) : 2 channels
Channel positions : Front: L R
Sampling rate : 48.0 kHz
Frame rate : 31.250 FPS (1536 SPF)
Bit depth : 16 bits
Compression mode : Lossy
Stream size : 133 MiB (6%)
Title : [UA-MVO-K1]
Language : Ukrainian
Service kind : Complete Main
Default : No
Forced : No

Audio #3
ID : 4
Format : AC-3
Format/Info : Audio Coding 3
Codec ID : A_AC3
Duration : 1 h 36 min
Bit rate mode : Constant
Bit rate : 448 kb/s
Channel(s) : 3 channels
Channel positions : Front: L R, Back: C
Sampling rate : 48.0 kHz
Frame rate : 31.250 FPS (1536 SPF)
Bit depth : 16 bits
Compression mode : Lossy
Stream size : 310 MiB (14%)
Title : Original
Language : English
Service kind : Complete Main
Default : No
Forced : No

Text
ID : 5
Format : UTF-8
Codec ID : S_TEXT/UTF8
Codec ID/Info : UTF-8 Plain Text
Duration : 1 h 31 min
Bit rate : 87 b/s
Count of elements : 1522
Stream size : 58.5 KiB (0%)
Language : English
Default : No
Forced : No
Подяка:
Пану xslim та пану robotron005 за доріжки
Джерело: &
Особиста оцінка: 8 - мені сподобалося

Вікі Крістіна Барселона / Vicky Cristina Barcelona (2008) AVC 2хUkr/Eng | Sub Eng

Вікі Крістіна Барселона / Vicky Cristina Barcelona (2008) AVC 2хUkr/Eng | Sub Eng


 Трекер:    Зареєстрований   

Завантажити / скачати фільм українською



відео для новачків



 Зареєстрований:   2018-10-10 21:05
 Розмір:   2.14 GB 
 Оцінка фільму:   8.5/10 (Голосів: 23)
   
F14 
Свій


З нами з: 13.07.11
Востаннє: 17.10.19
Повідомлень: 112

2018-11-02 13:15  
Тема Пенелопи Круз - розкрита?
Ваш часовий пояс: GMT + 2 Години

Нова тема   Відповісти