Джона Хекс / Jonah Hex (2010) 720p Ukr/Eng | Sub Ukr/Eng

Нові коментарі

Нова тема   Відповісти
Автор Повідомлення
staf777 
Попереджень: 1
Попереджень: 1 


З нами з: 16.11.16
Востаннє: 16.10.18
Повідомлень: 1632

2018-10-10 19:22  
Джона Хекс / Jonah Hex (2010) 720p Ukr/Eng | Sub Ukr/Eng

Джона Хекс / Jonah Hex (2010) 720p Ukr/Eng | Sub Ukr/Eng


Жанр: бойовик, вестерн, фентезі, трилер, драма
Країна: США



Кінокомпанія: Legendary Pictures, DC Comics, Mad Chance, Weed Road Pictures
Режисер: Джиммі Хейярд / Jimmy Hayward
Актори: Джош Бролін, Джон Малковіч, Меган Фокс, Майкл Фассбендер, Вілл Арнетт, Джон Галлахер мол., Том Вопат, Майкл Шеннон, Вес Бентлі, Джулія Джонс

Сюжет:
Парад героїв американських коміксів продовжується - настала черга Джони Гекса: брутального мисливця за головами, індіанського вихованця і солдата армії Конфедерації - з понівеченим несправедливим судом обличчям і загрубілим серцем він все одно живе за власним кодексом честі, мандруючи охопленим полум'ям громадянської війни півднем США.


Тривалість: 01:21:28
Якість: 720p
Відео:
кодек:
розмір кадру: 1280 x 528
бітрейт: 4433 кб/с

Аудіо # 1:
мова: українська
переклад: двоголосий закадровий
кодек: 2.0
бітрейт: 192 кб/с

Аудіо # 2:
мова: англійська
переклад: оригінал
кодек: 5.1
бітрейт: 1509 кб/с

Джерело озвучення:


Субтитри:
мова: українська
тип: програмні (м'які)
формат: *.srt

Субтитри:
мова: англійська
тип: програмні (м'які)
формат: *.srt
Info
General
Unique ID : 230423099482398532885237866523048498685 (0xAD59DFED76D9A71102FC3035D97755FD)
Complete name : N:\Фільми HD\Фентезі\Jonah Hex (2010) 720p [UKR_ENG] [Hurtom].
Format :
Format version : Version 4 / Version 2
File size : 3.49 GiB
Duration : 1 h 21 min
Overall bit rate : 6 137 kb/s
Movie name : Jonah Hex (2010) 720p [UKR_ENG] [Hurtom]
Encoded date : UTC 2018-10-10 15:51:40
Writing application : v24.0.0 ('Beyond The Pale') 64-bit
Writing library : libebml v1.3.6 + v1.4.9
Cover : Yes
Attachments : cover.jpg

Video
ID : 1
Format : AVC
Format/Info : Advanced Video Codec
Format profile : [email protected]
Format settings : CABAC / 4 Ref Frames
Format settings, CABAC : Yes
Format settings, ReFrames : 4 frames
Codec ID : V_MPEG4/ISO/AVC
Duration : 1 h 21 min
Bit rate : 4 433 kb/s
Width : 1 280 pixels
Height : 528 pixels
Display aspect ratio : 2.40:1
Frame rate mode : Constant
Frame rate : 23.976 (24000/1001) FPS
Color space : YUV
Chroma subsampling : 4:2:0
Bit depth : 8 bits
Scan type : Progressive
Bits/(Pixel*Frame) : 0.274
Stream size : 2.52 GiB (72%)
Language : English
Default : Yes
Forced : No

Audio #1
ID : 2
Format : AC-3
Format/Info : Audio Coding 3
Codec ID : A_AC3
Duration : 1 h 21 min
Bit rate mode : Constant
Bit rate : 192 kb/s
Channel(s) : 2 channels
Channel positions : Front: L R
Sampling rate : 48.0 kHz
Frame rate : 31.250 FPS (1536 SPF)
Bit depth : 16 bits
Compression mode : Lossy
Stream size : 112 MiB (3%)
Title : [UA-DVO]
Language : Ukrainian
Service kind : Complete Main
Default : Yes
Forced : Yes

Audio #2
ID : 3
Format :
Format/Info : Digital Theater Systems
Codec ID : A_DTS
Duration : 1 h 21 min
Bit rate mode : Constant
Bit rate : 1 509 kb/s
Channel(s) : 6 channels
Channel positions : Front: L C R, Side: L R, LFE
Sampling rate : 48.0 kHz
Frame rate : 93.750 FPS (512 SPF)
Bit depth : 24 bits
Compression mode : Lossy
Stream size : 880 MiB (25%)
Title : Jonah.Hex.2010. 1509kbps
Language : English
Default : No
Forced : No

Text #1
ID : 4
Format : UTF-8
Codec ID : S_TEXT/UTF8
Codec ID/Info : UTF-8 Plain Text
Duration : 1 h 11 min
Bit rate : 62 b/s
Count of elements : 667
Stream size : 32.8 KiB (0%)
Language : Ukrainian
Default : No
Forced : No

Text #2
ID : 5
Format : UTF-8
Codec ID : S_TEXT/UTF8
Codec ID/Info : UTF-8 Plain Text
Duration : 1 h 20 min
Bit rate : 38 b/s
Count of elements : 707
Stream size : 22.5 KiB (0%)
Title : SDH BD
Language : English
Default : No
Forced : No

Menu
00:00:00.000 : en:00:00:00.000
00:10:24.833 : en:00:10:24.833
00:21:43.385 : en:00:21:43.385
00:31:52.702 : en:00:31:52.702
00:40:15.079 : en:00:40:15.079
00:50:28.442 : en:00:50:28.442
01:01:28.268 : en:01:01:28.268
01:11:08.264 : en:01:11:08.264
Скріншоти





Подяки:
- за запис звуку з ТБ п. POMEO,
- за синхронізацію п.patriot2305,
- за постер п. bilenkuyboy

Джерело: &
Особиста оцінка: 0 - не дивився
Джона Хекс / Jonah Hex (2010) 720p Ukr/Eng | Sub Ukr/Eng

Джона Хекс / Jonah Hex (2010) 720p Ukr/Eng | Sub Ukr/Eng


 Трекер:    Зареєстрований   

Завантажити / скачати фільм українською



відео для новачків



 Зареєстрований:   2018-10-10 22:09
 Розмір:   3.49 GB 
 Оцінка фільму:   7/10 (Голосів: 5)
   
Інші релізи
   Джона Хекс / Jonah Hex (2010) AVC Ukr/Eng | Sub Ukr/Eng staf777  9 / 0   1.35 GB   2018-09-30 14:45 
   Джона Хекс / Jonah Hex (2010) 1080p Ukr/Eng | Sub Ukr/Eng igor911  2 / 0   8.2 GB   2015-04-09 02:44 
   Джона Хекс / Jonah Hex (2010) Ukr/Eng | sub Ukr/Eng patriot2305  3 / 0   1.35 GB   2013-05-23 08:58 
kryk-v.ya. 
VIP


З нами з: 14.02.14
Востаннє: 17.10.18
Повідомлень: 612

2018-10-12 21:55  
класний вестерн.
Ваш часовий пояс: GMT + 2 Години

Нова тема   Відповісти