Червоний Дракон / Red Dragon (2002) Remux 1080p Ukr/Eng | Sub Eng

Нові коментарі

Нова тема   Відповісти
Автор Повідомлення
IronBee 
Поважний учасник


З нами з: 08.02.10
Востаннє: 17.12.18
Повідомлень: 211

2018-10-10 17:40  
Червоний Дракон / Red Dragon (2002) Remux 1080p Ukr/Eng | Sub Eng

Червоний Дракон / Red Dragon (2002) Remux 1080p Ukr/Eng | Sub Eng


Жанр: трилер, детектив, драма, кримінальний
Країна: США, Німеччина



Кінокомпанія: Universal Pictures, Dino De Laurentiis Productions
Режисер: Бретт Ретнер /Brett Ratner
Актори: Актори: Ентоні Гопкінс / Anthony Hopkins, Едвард Нортон / Edward Norton, Рейф Фейнс /Ralph Fiennes/, Харві Кейтел /Harvey Keitel/, Емілі Вотсон /Emily Watson/, Мері-Луіз Паркер /Mary-Louise Parker/

Сюжет:
Події цієї стрічки розгортаються до подій, описаних в «Мовчанні ягнят» і до появи Клариси Старлінг. Ми знайомимся з людиною, яка спіймала Ганнібала Лектора, — спеціальним агентом ФБР Віллом Гремом. Після арешту Лектора, який ледве не вартував Грему життя, Вілл йде зі служби в Бюро.
Проте, поява нового жахливого серійного вбивці заставляє Грема повернутися на службу. Цей безжальний монстр, якого преса вже охрестила «Зубною Феєю», ночами вирізає цілі сім'ї. Тепер Віллу потрібна порада від досвідченого спеціаліста по психічним аномаліям, і він звертається за допогою до свого старого знайомого… доктора «Ганнібала-каннібала» Лектора!


Тривалість: 02:04:31
Якість: Remux
Відео:
кодек:
розмір кадру: 1920 х 1080
бітрейт: 30.4 Mб/с

Аудіо # 1:
мова: українська
переклад: двоголосий закадровий озвучений Студія ТВ+ на замовлення ICTV
кодек: 5.1
бітрейт: 448 кб/с

Аудіо # 2:
мова: англійська
переклад: оригінал
кодек: -HD 5.1
бітрейт: 4204 кб/с

Субтитри # 1-3:
мова: англійська (форсовані, повні, SDH)
тип: пререндерні
формат: *.PGS
Info
General
Unique ID : 115531367844182431057160215475671025847 (0x56EA8836B427FCD995E347BF7D8848B7)
Complete name : E:\Films\Червоний Дракон Red Dragon (2002) Remux 1080p UkrEng Sub Eng[Hurtom].
Format :
Format version : Version 4
File size : 30.5 GiB
Duration : 2 h 4 min
Overall bit rate mode : Variable
Overall bit rate : 35.1 Mb/s
Encoded date : UTC 2018-10-06 07:24:17
Writing application : v27.0.0 ('Metropolis') 64-bit
Writing library : libebml v1.3.6 + v1.4.9

Video
ID : 1
Format : AVC
Format/Info : Advanced Video Codec
Format profile : [email protected]
Format settings : CABAC / 4 Ref Frames
Format settings, CABAC : Yes
Format settings, ReFrames : 4 frames
Codec ID : V_MPEG4/ISO/AVC
Duration : 2 h 4 min
Bit rate mode : Variable
Bit rate : 30.4 Mb/s
Maximum bit rate : 33.0 Mb/s
Width : 1 920 pixels
Height : 1 080 pixels
Display aspect ratio : 16:9
Frame rate mode : Constant
Frame rate : 23.976 (24000/1001) FPS
Color space : YUV
Chroma subsampling : 4:2:0
Bit depth : 8 bits
Scan type : Progressive
Bits/(Pixel*Frame) : 0.612
Stream size : 26.4 GiB (87%)
Default : Yes
Forced : No
Color range : Limited
Color primaries : BT.709
Transfer characteristics : BT.709
Matrix coefficients : BT.709

Audio #1
ID : 2
Format : AC-3
Format/Info : Audio Coding 3
Commercial name : Dolby Digital
Codec ID : A_AC3
Duration : 2 h 4 min
Bit rate mode : Constant
Bit rate : 448 kb/s
Channel(s) : 6 channels
Channel layout : L R C LFE Ls Rs
Sampling rate : 48.0 kHz
Frame rate : 31.250 FPS (1536 SPF)
Bit depth : 16 bits
Compression mode : Lossy
Stream size : 399 MiB (1%)
Title : 5.1 448 кб/с двоголосий закадровий озвучений Студія ТВ+ на замовлення ICTV
Language : Ukrainian
Service kind : Complete Main
Default : Yes
Forced : No

Audio #2
ID : 3
Format : XLL
Format/Info : Digital Theater Systems
Commercial name : -HD Master Audio
Codec ID : A_DTS
Duration : 2 h 4 min
Bit rate mode : Variable
Bit rate : 4 204 kb/s
Channel(s) : 6 channels
Channel layout : C L R Ls Rs LFE
Sampling rate : 48.0 kHz
Frame rate : 93.750 FPS (512 SPF)
Bit depth : 24 bits
Compression mode : Lossless
Stream size : 3.65 GiB (12%)
Language : English
Default : No
Forced : No

Text #1
ID : 4
Format : PGS
Muxing mode : zlib
Codec ID : S_HDMV/PGS
Codec ID/Info : Picture based subtitle format used on BDs/HD-DVDs
Duration : 1 h 53 min
Bit rate : 9 791 b/s
Count of elements : 456
Stream size : 7.94 MiB (0%)
Language : English
Default : Yes
Forced : No

Text #2
ID : 5
Format : PGS
Muxing mode : zlib
Codec ID : S_HDMV/PGS
Codec ID/Info : Picture based subtitle format used on BDs/HD-DVDs
Duration : 1 h 59 min
Bit rate : 37.4 kb/s
Count of elements : 3092
Stream size : 31.9 MiB (0%)
Language : English
Default : No
Forced : No

Text #3
ID : 6
Format : PGS
Muxing mode : zlib
Codec ID : S_HDMV/PGS
Codec ID/Info : Picture based subtitle format used on BDs/HD-DVDs
Duration : 2 h 4 min
Bit rate : 74.2 kb/s
Count of elements : 4438
Stream size : 65.8 MiB (0%)
Language : English
Default : No
Forced : No
Скріншоти





Українська звукова доріжка від _oles

Джерело: &
Особиста оцінка: 10 - без зайвих вагань рекомендую всім!


Золотий реліз (завантажене не впливає на рейтинг)
 Трекер:    Зареєстрований   

Завантажити / скачати фільм українською



відео для новачків



 Зареєстрований:   2018-10-10 17:40
 Розмір:   30.51 GB 
 Оцінка фільму:   10/10 (Голосів: 7)
   
Інші релізи
st_78 
VIP


З нами з: 18.11.16
Востаннє: 17.12.18
Повідомлень: 1058

2018-10-10 18:00  
IronBee написано:
Події цієї стрічки розгортаються до подій, описаних в «Мовчанні ягнят» і до появи Клариси Старлінг.

Тому що, ця стрічка знята за першою книгою. Насправді, це не перша спроба екранізації, але попередня, на мій погляд, була не дуже не вдалою.

hetzendorf 
Попереджень: 1
Попереджень: 1 


З нами з: 23.07.15
Востаннє: 17.12.18
Повідомлень: 1580

2018-11-17 02:20  
st_78 написано:
знята за першою книгою.

Приквел https://toloka.to/t20414 написали пізніще?

kryk-v.ya. 
VIP


З нами з: 14.02.14
Востаннє: 17.12.18
Повідомлень: 740

2018-11-17 19:04  
Панове хто може розписати послідовність цих фільмів про Лектора,все збираюсь передивитись в якості і ніяк не виходило...
цей фільм перший...?

hetzendorf 
Попереджень: 1
Попереджень: 1 


З нами з: 23.07.15
Востаннє: 17.12.18
Повідомлень: 1580

2018-11-17 19:09  
kryk-v.ya.
З тих, що я бачив, у послідовності сюжетних подій:
* Молодий Ганібал / Hannibal Rising (2007)
* Червоний Дракон / Red Dragon (2002)
* Мовчання ягнят / The Silence of the Lambs (1991)
* Ганнiбал / Hannibal (2001)

Можливо, є ще щось, про що мені не відомо

st_78 
VIP


З нами з: 18.11.16
Востаннє: 17.12.18
Повідомлень: 1058

2018-11-17 21:25  
hetzendorf, так, приквел написано пізніше у 2006 році.
Ваш часовий пояс: GMT + 2 Години

Нова тема   Відповісти