Скотт Пілігрим проти Світу / Scott Pilgrim vs. the World (2010) 1080p H.265 3xUkr/Eng | Sub Ukr/Eng

Нові коментарі

Нова тема   Відповісти
Автор Повідомлення
-Star-Lord- 
VIP


З нами з: 09.08.18
Востаннє: 19.12.18
Повідомлень: 355

2018-10-10 14:59  
Скотт Пілігрим проти Світу / Scott Pilgrim vs. the World (2010) 1080p H.265 3xUkr/Eng | Sub Ukr/Eng

Скотт Пілігрим проти Світу / Scott Pilgrim vs. the World (2010) 1080p H.265 3xUkr/Eng | Sub Ukr/Eng


Жанр: комедія, фантастика
Країна: США



Кінокомпанія: Universal Pictures, Marc Platt Productions, Big Talk Productions
Режисер: Едґар Райт
Актори: Майкл Сера, Мері Елізабет Уінстед, Кієран Калкін, Кріс Еванз, Анна Кендрік, Елісон Піл, Брендон Рут, Джейсон Шварцман

Сюжет:
Рок-музикант Скотт Пілігрим знайшов дівчину своєї мрії. Але на його шляху стоїть складніше завдання: щоб зустрічатися з нею, Скотту доведеться перемогти її сімох злих колишніх.
Але найголовніший суперник - не ці семеро колишніх...


Тривалість: 01:52:23
Якість:
Відео:
кодек: H.265 (HEVC)
розмір кадру: 1920 х 1040
бітрейт: 7 393 кб/с
бітова глибина: 10 біт
Увага! Перед завантаженням переконайтесь, що ваш пристрій відтворення (та/або ПЗ) підтримує H.265 (HEVC)

Аудіо # 1:
мова: українська
переклад: багатоголосий закадровий
кодек: 2.0
бітрейт: 192 кб/с

Аудіо # 2:
мова: українська
переклад: багатоголосий закадровий
кодек: 2.0
бітрейт: 192 кб/с

Аудіо # 3:
мова: українська
переклад: багатоголосий закадровий (любительський) | Товариство "Три Крапки"
кодек: 2.0
бітрейт: 256 кб/с

Аудіо # 4:
мова: англійська
переклад: оригінал
кодек: 5.1
бітрейт: 448 кб/с

Субтитри # 1: ,
мова: англійська (Full)
тип: програмні (м'які)
формат: *.srt

Субтитри # 2:
мова: англійська (Full)
тип: програмні (м'які)
формат: *.srt


Info
Код:
General
Unique ID                                : 138065084296443281387386877896211867850 (0x67DE5E360A455B00209D39D5DBF4A8CA)
Complete name                            : F:\Video\Scott Pilgrim vs. the World (2010) 1080p H.265 [3xUKR_ENG].
Format                                   :
Format version                           : Version 4 / Version 2
File size                                : 6.66 GiB
Duration                                 : 1 h 52 min
Overall bit rate                         : 8 480 kb/s
Movie name                               : Scott Pilgrim vs. the World (2010)
Encoded date                             : UTC 2018-10-18 11:44:12
Writing application                      : v20.0.0 ('I Am The Sun') 32-bit
Writing library                          : libebml v1.3.5 + v1.4.8
Cover                                    : Yes
Attachments                              : Cover.jpg

Video
ID                                       : 1
Format                                   : HEVC
Format/Info                              : High Efficiency Video Coding
Format profile                           : Main [email protected]@High
Codec ID                                 : V_MPEGH/ISO/HEVC
Duration                                 : 1 h 52 min
Bit rate                                 : 7 393 kb/s
Width                                    : 1 920 pixels
Height                                   : 1 040 pixels
Display aspect ratio                     : 1.85:1
Frame rate mode                          : Constant
Frame rate                               : 23.976 (24000/1001) FPS
Color space                              : YUV
Chroma subsampling                       : 4:2:0
Bit depth                                : 10 bits
Bits/(Pixel*Frame)                       : 0.154
Stream size                              : 5.80 GiB (87%)
Writing library                          : x265 2.8+19-bcdc610cf5f0:[Windows][GCC 7.3.0][64 bit] 10bit
Encoding settings                        : cpuid=1049583 / frame-threads=5 / numa-pools=4 / wpp / no-pmode / no-pme / no-psnr / no-ssim / log-level=3 / input-csp=1 / input-res=1920x1040 / interlace=0 / total-frames=0 / level-idc=41 / high-tier=1 / uhd-bd=0 / ref=4 / allow-non-conformance / no-repeat-headers / annexb / no-aud / no-hrd / info / hash=0 / no-temporal-layers / open-gop / min-keyint=24 / keyint=240 / gop-lookahead=0 / bframes=8 / b-adapt=2 / b-pyramid / bframe-bias=0 / rc-lookahead=60 / lookahead-slices=6 / scenecut=40 / radl=0 / no-intra-refresh / ctu=64 / min-cu-size=8 / no-rect / no-amp / max-tu-size=32 / tu-inter-depth=1 / tu-intra-depth=1 / limit-tu=0 / rdoq-level=1 / dynamic-rd=0.00 / no-ssim-rd / signhide / no-tskip / nr-intra=0 / nr-inter=0 / no-constrained-intra / no-strong-intra-smoothing / max-merge=5 / limit-refs=3 / no-limit-modes / me=3 / subme=7 / merange=57 / temporal-mvp / weightp / no-weightb / no-analyze-src-pics / deblock=-3:-3 / no-sao / no-sao-non-deblock / rd=3 / no-early-skip / rskip / no-fast-intra / no-tskip-fast / no-cu-lossless / no-b-intra / no-splitrd-skip / rdpenalty=0 / psy-rd=2.00 / psy-rdoq=1.00 / no-rd-refine / no-lossless / cbqpoffs=0 / crqpoffs=0 / rc=crf / crf=19.0 / qcomp=0.60 / qpstep=4 / stats-write=0 / stats-read=0 / vbv-maxrate=50000 / vbv-bufsize=50000 / vbv-init=0.9 / crf-max=0.0 / crf-min=0.0 / ipratio=1.40 / pbratio=1.30 / aq-mode=1 / aq-strength=1.00 / cutree / zone-count=0 / no-strict-cbr / qg-size=32 / no-rc-grain / qpmax=69 / qpmin=0 / no-const-vbv / sar=255 / sar-width / : / sar-height=255:254 / overscan=0 / videoformat=5 / range=0 / colorprim=1 / transfer=1 / colormatrix=1 / chromaloc=0 / display-window=0 / max-cll=0,0 / min-luma=0 / max-luma=1023 / log2-max-poc-lsb=8 / vui-timing-info / vui-hrd-info / slices=1 / no-opt-qp-pps / no-opt-ref-list-length-pps / no-multi-pass-opt-rps / scenecut-bias=0.05 / no-opt-cu-delta-qp / no-aq-motion / no-hdr / no-hdr-opt / no-dhdr10-opt / no-idr-recovery-sei / analysis-reuse-level=5 / scale-factor=0 / refine-intra=0 / refine-inter=0 / refine-mv=0 / no-limit-sao / ctu-info=0 / no-lowpass-dct / refine-mv-type=0 / copy-pic=1 / max-ausize-factor=1.0 / no-dynamic-refine / no-single-sei
Default                                  : Yes
Forced                                   : No
Color range                              : Limited
Color primaries                          : BT.709
Transfer characteristics                 : BT.709
Matrix coefficients                      : BT.709

Audio #1
ID                                       : 2
Format                                   : AC-3
Format/Info                              : Audio Coding 3
Codec ID                                 : A_AC3
Duration                                 : 1 h 52 min
Bit rate mode                            : Constant
Bit rate                                 : 192 kb/s
Channel(s)                               : 2 channels
Channel positions                        : Front: L R
Sampling rate                            : 48.0 kHz
Frame rate                               : 31.250 FPS (1536 SPF)
Bit depth                                : 16 bits
Compression mode                         : Lossy
Stream size                              : 154 MiB (2%)
Title                                    : Cine+ [Sando7]
Language                                 : Ukrainian
Service kind                             : Complete Main
Default                                  : Yes
Forced                                   : Yes

Audio #2
ID                                       : 3
Format                                   : AC-3
Format/Info                              : Audio Coding 3
Codec ID                                 : A_AC3
Duration                                 : 1 h 52 min
Bit rate mode                            : Constant
Bit rate                                 : 192 kb/s
Channel(s)                               : 2 channels
Channel positions                        : Front: L R
Sampling rate                            : 48.0 kHz
Frame rate                               : 31.250 FPS (1536 SPF)
Bit depth                                : 16 bits
Compression mode                         : Lossy
Stream size                              : 154 MiB (2%)
Title                                    : MVO [NLO TV] 2.0 192 kbps [Hurtom-patriot2305]
Language                                 : Ukrainian
Service kind                             : Complete Main
Default                                  : No
Forced                                   : No

Audio #3
ID                                       : 4
Format                                   : AC-3
Format/Info                              : Audio Coding 3
Codec ID                                 : A_AC3
Duration                                 : 1 h 52 min
Bit rate mode                            : Constant
Bit rate                                 : 256 kb/s
Channel(s)                               : 2 channels
Channel positions                        : Front: L R
Sampling rate                            : 48.0 kHz
Frame rate                               : 31.250 FPS (1536 SPF)
Bit depth                                : 16 bits
Compression mode                         : Lossy
Stream size                              : 206 MiB (3%)
Title                                    : MVO [3 krapky] 2.0 256 kbps [Hurtom-Leben]
Language                                 : Ukrainian
Service kind                             : Complete Main
Default                                  : No
Forced                                   : No

Audio #4
ID                                       : 5
Format                                   : AC-3
Format/Info                              : Audio Coding 3
Codec ID                                 : A_AC3
Duration                                 : 1 h 52 min
Bit rate mode                            : Constant
Bit rate                                 : 448 kb/s
Channel(s)                               : 6 channels
Channel positions                        : Front: L C R, Side: L R, LFE
Sampling rate                            : 48.0 kHz
Frame rate                               : 31.250 FPS (1536 SPF)
Bit depth                                : 16 bits
Compression mode                         : Lossy
Stream size                              : 360 MiB (5%)
Title                                    : Original 5.1 448 kbps
Language                                 : English
Service kind                             : Complete Main
Default                                  : No
Forced                                   : No

Text #1
ID                                       : 6
Format                                   : UTF-8
Codec ID                                 : S_TEXT/UTF8
Codec ID/Info                            : UTF-8 Plain Text
Duration                                 : 1 h 51 min
Bit rate                                 : 115 b/s
Count of elements                        : 1779
Stream size                              : 94.3 KiB (0%)
Title                                    : Ukr Full
Language                                 : Ukrainian
Default                                  : Yes
Forced                                   : No

Text #2
ID                                       : 7
Format                                   : UTF-8
Codec ID                                 : S_TEXT/UTF8
Codec ID/Info                            : UTF-8 Plain Text
Duration                                 : 1 h 48 min
Bit rate                                 : 77 b/s
Count of elements                        : 2163
Stream size                              : 61.7 KiB (0%)
Title                                    : Eng Full
Language                                 : English
Default                                  : No
Forced                                   : No

Menu
00:00:00.000                             : :00:00:00.000
00:07:24.318                             : :00:07:24.318
00:13:14.668                             : :00:13:14.668
00:20:01.241                             : :00:20:01.241
00:26:01.142                             : :00:26:01.142
00:30:50.223                             : :00:30:50.223
00:38:52.747                             : :00:38:52.747
00:45:25.681                             : :00:45:25.681
00:50:18.515                             : :00:50:18.515
00:53:55.065                             : :00:53:55.065
00:59:15.843                             : :00:59:15.843
01:03:10.328                             : :01:03:10.328
01:08:05.206                             : :01:08:05.206
01:14:23.750                             : :01:14:23.750
01:20:19.022                             : :01:20:19.022
01:27:47.512                             : :01:27:47.512
01:30:43.771                             : :01:30:43.771
01:39:14.198                             : :01:39:14.198
01:40:49.793                             : :01:40:49.793
01:48:34.466                             : :01:48:34.466
Скріншоти




Джерело:
Особиста оцінка: 10 - без зайвих вагань рекомендую всім!


Авторський реліз (завантажувати можна без реєстрації)
 Трекер:    Зареєстрований   

Завантажити / скачати фільм українською



відео для новачків



 Зареєстрований:   2018-10-18 13:58
 Розмір:   6.66 GB 
 Оцінка фільму:   9.1/10 (Голосів: 10)
   
-Star-Lord- 
VIP


З нами з: 09.08.18
Востаннє: 19.12.18
Повідомлень: 355

2018-10-18 14:00  
Додав доріжку + укр. субтитри з

Ваш часовий пояс: GMT + 2 Години

Нова тема   Відповісти