Принц Єгипту / The Prince of Egypt (1998) 720p 2xUkr/Eng | Sub Eng

Нові коментарі

Нова тема   Відповісти
Автор Повідомлення
Anonymous 







2018-10-10 10:58  
Принц Єгипту / The Prince of Egypt (1998) 720p 2xUkr/Eng | Sub Eng

Принц Єгипту / The Prince of Egypt (1998) 720p 2xUkr/Eng | Sub Eng


Жанр: анімація, історичний, музичний, сімейний
Країна: США



Кінокомпанія: DreamWorks
Режисер: Бренда Чепмен, Стів Хікнер
Актори: Мішель Пфайфер, Стів Мартін, Ральф Файнс, Сандра Баллок, Джеф Голдблюм, Мартін Шорт, Мартін Шорт

Сюжет:
Стрімкий і величний Ніл виніс на берег, перед палацом фараона, кошик з немовлям. Дружина фараона усиновила хлопчика і дала йому ім'я Мойсей. Йшли роки, Мойсей і його названий брат Рамзес зростали разом. Але прийде день, коли один з братів стане владикою найбільшої імперії на землі, а інший - пророком. Протиборство героїв назавжди змінить їхні долі й історію людства.


Тривалість: 01:38:42
Якість: 720p
Відео:
кодек:
розмір кадру: 1280х694
бітрейт: 6 163 кб/с

Аудіо # 1:
мова: українська
переклад: професійний дубльований
кодек: 2.0
бітрейт: 192 кб/с

Аудіо # 2:
мова: українська
переклад: багатоголосий закадровий , ,
кодек: 2.0
бітрейт: 192 кб/с

Аудіо # 3:
мова: англійська
переклад: оригінал
кодек: 5.1
бітрейт: 448 кб/с

Субтитри:
мова: англійська
тип: програмні (м'які)
формат: *.srt
Info
General
Unique ID : 207820305477351984983467435680373253099 (0x9C58BC24D5B158EFAE64C00812F9A3EB)
Format :
Format version : Version 4 / Version 2
File size : 4.82 GiB
Duration : 1 h 38 min
Overall bit rate : 6 995 kb/s
Encoded date : UTC 2018-10-10 08:48:11
Writing application : v6.1.0 ('Old Devil') built on Mar 4 2013 09:10:42
Writing library : libebml v1.3.0 + v1.4.0

Video
ID : 1
Format : AVC
Format/Info : Advanced Video Codec
Format profile : [email protected]
Format settings : CABAC / 9 Ref Frames
Format settings, CABAC : Yes
Format settings, ReFrames : 9 frames
Codec ID : V_MPEG4/ISO/AVC
Duration : 1 h 38 min
Bit rate : 6 163 kb/s
Width : 1 280 pixels
Height : 694 pixels
Display aspect ratio : 1.85:1
Frame rate mode : Constant
Frame rate : 23.976 (24000/1001) FPS
Color space : YUV
Chroma subsampling : 4:2:0
Bit depth : 8 bits
Scan type : Progressive
Bits/(Pixel*Frame) : 0.289
Stream size : 4.15 GiB (86%)
Writing library : core 152 r2851kMod ba24899
Encoding settings : cabac=1 / ref=9 / deblock=1:-3:-3 / analyse=0x3:0x113 / me=umh / subme=11 / psy=1 / fade_compensate=0.00 / psy_rd=1.00:0.00 / mixed_ref=1 / me_range=48 / chroma_me=1 / trellis=2 / 8x8dct=1 / cqm=0 / deadzone=21,11 / fast_pskip=0 / chroma_qp_offset=-2 / threads=6 / lookahead_threads=1 / sliced_threads=0 / nr=0 / decimate=0 / interlaced=0 / bluray_compat=0 / constrained_intra=0 / bframes=16 / b_pyramid=2 / b_adapt=2 / b_bias=0 / direct=3 / weightb=1 / open_gop=0 / weightp=2 / keyint=240 / keyint_min=23 / scenecut=40 / intra_refresh=0 / rc_lookahead=40 / rc=2pass / mbtree=0 / bitrate=6163 / ratetol=1.0 / qcomp=0.60 / qpmin=0 / qpmax=69 / qpstep=4 / cplxblur=20.0 / qblur=0.5 / vbv_maxrate=50000 / vbv_bufsize=62500 / nal_hrd=none / filler=0 / ip_ratio=1.25 / pb_ratio=1.30 / aq=1:1.00
Language : English
Default : Yes
Forced : No
Color range : Limited
Color primaries : BT.709
Transfer characteristics : BT.709
Matrix coefficients : BT.709

Audio #1
ID : 2
Format : AC-3
Format/Info : Audio Coding 3
Codec ID : A_AC3
Duration : 1 h 38 min
Bit rate mode : Constant
Bit rate : 192 kb/s
Channel(s) : 2 channels
Channel positions : Front: L R
Sampling rate : 48.0 kHz
Frame rate : 31.250 FPS (1536 SPF)
Bit depth : 16 bits
Compression mode : Lossy
Stream size : 136 MiB (3%)
Title : UKR (TET) - Дубльований переклад
Language : Ukrainian
Service kind : Complete Main
Default : Yes
Forced : Yes

Audio #2
ID : 3
Format : AC-3
Format/Info : Audio Coding 3
Codec ID : A_AC3
Duration : 1 h 38 min
Bit rate mode : Constant
Bit rate : 192 kb/s
Channel(s) : 2 channels
Channel positions : Front: L R
Sampling rate : 48.0 kHz
Frame rate : 31.250 FPS (1536 SPF)
Bit depth : 16 bits
Compression mode : Lossy
Stream size : 136 MiB (3%)
Title : UKR (K1, ICTV, Inter)
Language : Ukrainian
Service kind : Complete Main
Default : No
Forced : No

Audio #3
ID : 4
Format : AC-3
Format/Info : Audio Coding 3
Codec ID : A_AC3
Duration : 1 h 38 min
Bit rate mode : Constant
Bit rate : 448 kb/s
Channel(s) : 6 channels
Channel positions : Front: L C R, Side: L R, LFE
Sampling rate : 48.0 kHz
Frame rate : 31.250 FPS (1536 SPF)
Bit depth : 16 bits
Compression mode : Lossy
Stream size : 316 MiB (6%)
Language : English
Service kind : Complete Main
Default : No
Forced : No

Text #1
ID : 5
Format : UTF-8
Codec ID : S_TEXT/UTF8
Codec ID/Info : UTF-8 Plain Text
Title : SDH | 1
Language : English
Default : No
Forced : No

Text #2
ID : 6
Format : UTF-8
Codec ID : S_TEXT/UTF8
Codec ID/Info : UTF-8 Plain Text
Title : SDH | 2
Language : English
Default : No
Forced : No

Menu
00:00:00.000 : en:Deliver Us (Main Title)
00:04:14.679 : en:The River
00:08:14.679 : en:Chariot Race
00:11:07.679 : en:One Weak Link
00:13:33.679 : en:Rameses' Hiding Place
00:14:58.679 : en:Desert Flower
00:19:00.679 : en:You are Our Brother
00:22:19.679 : en:All I Ever Wanted
00:24:21.679 : en:Hieroglyph Nightmare
00:25:53.679 : en:Sacrifice
00:27:39.679 : en:This is Your Home
00:29:13.679 : en:Slavery
00:33:15.679 : en:The Sand Storm
00:37:23.679 : en:Through Heaven's Eyes
00:42:09.679 : en:Burning Bush
00:47:53.679 : en:The MIssion
00:50:50.679 : en:Let My People Go
00:53:43.679 : en:Playing with the Big Boys
00:56:56.679 : en:Rameses vs Moses
00:59:23.679 : en:Nile of Blood
01:05:10.679 : en:Plagues
01:08:12.679 : en:Ultimatum
01:12:14.679 : en:Death of the First Born
01:16:56.679 : en:When You Believe
01:22:23.679 : en:Parting The Red Sea
01:26:06.679 : en:The Closing of The Red Sea
01:29:12.679 : en:Goodbye Brother
01:31:29.679 : en:End Credits
Скріншоти






За українську доріжку подяка п.: xslim, Arsenfpu
Особиста подяка пану denixx за надану матеріальну допомогу на підтримку цього і майбутніх релізів.
Джерело:


Срібний реліз (на рейтинг впливає 50% завантаженого)
 Трекер:    Зареєстрований   

Завантажити / скачати мультфільм українською



відео для новачків



 Зареєстрований:   2018-10-10 10:58
 Розмір:   4.82 GB 
 Оцінка мультфільму:   9.7/10 (Голосів: 7)
   
Інші релізи
   Принц Єгипту / The Prince of Egypt (1998) HDTV 1080i 2xUkr/Eng sergiyko.5  0 / 0   5.28 GB   2016-08-14 23:55 
   Принц Єгипту / The Prince of Egypt (1998) 2xUkr/Eng Arsenfpu  5 / 0   1.9 GB   2016-08-14 09:51 
   Принц Єгипту / The Prince of Egypt (1998) 1080і ethan cole  2 / 0   4.91 GB   2012-11-19 00:53 
   Принц Єгипту / The Prince of Egypt (1998) Givi  2 / 0   1.2 GB   2011-03-12 22:53 
   Принц Єгипту / The Prince of Egypt (1998) Forestelf  3 / 0   1.27 GB   2010-04-03 22:49 
Ваш часовий пояс: GMT + 2 Години

Нова тема   Відповісти