Джон Вік. Диологія / John Wick. Diology (2014-2017) 1080p H.265 Ukr/Eng | Sub Ukr/Eng

Нові коментарі

Нова тема   Відповісти
Автор Повідомлення
-Star-Lord- 
Поважний учасник


З нами з: 09.08.18
Востаннє: 17.10.18
Повідомлень: 197

2018-10-10 11:16  
Джон Вік. Диологія / John Wick. Diology (2014-2017) 1080p H.265 Ukr/Eng | Sub Ukr/Eng

Джон Вік. Диологія / John Wick. Diology (2014-2017) 1080p H.265 Ukr/Eng | Sub Ukr/Eng



Кінокомпанія: Lionsgate, Thunder Road Pictures, 87Eleven, Company Films, DefyNite Films, Huayi Brothers Media, MJW Films, Rocket Science VFX, Thunder Road, Unbelievable Entertainment
Режисер: Чад Стагелскі / Chad Stahelski, Дейвід Лейтч / David Leitch
Жанр: бойовик, екшн, трилер
Країна: США, Канада, Китай

1. | 2.

1. Джон Вік / John Wick (2014) 1080p H.265 Ukr/Eng | Sub Ukr/Eng
Джон Вік / John Wick (2014) 1080p H.265 Ukr/Eng | Sub Ukr/Eng

Джон Вік. Диологія / John Wick. Diology (2014-2017) 1080p H.265 Ukr/Eng | Sub Ukr/Eng


Актори: Кіану Рівз / Keanu Reeves, Адріяна Палікі / Adrianne Palicki, Бріджит Мойнаген / Bridget Moynahan, Віллем Дефо / Willem Dafoe, Бріджет Ріґан / Bridget Regan, Джейсон Айзекс / Jason Isaacs, Йєн МакШейн / Ian McShane, Джон Леґуізамо / John Leguizamo та інші

Сюжет:
Джон Вік – колишній найманий вбивця – веде спокійне життя, коли злочинець краде його улюблений Mustang 1969 та ще й убиває собаку Дейзі, єдине живе нагадування про померлу дружину. Жага помсти пробуджує в ньому, здавалося б, втрачену силу...


Тривалість: 01:41:12
Якість:
Відео:
кодек: H.265 (HEVC)
розмір кадру: 1920 х 800
бітрейт: 4 464 кб/с
бітова глибина: 10 біт
Увага! Перед завантаженням переконайтесь, що ваш пристрій відтворення (та/або ПЗ) підтримує H.265 (HEVC)

Аудіо # 1:
мова: українська
переклад: професійний дубльований
кодек: 2.0
бітрейт: 192 кб/с

Аудіо # 2:
мова: англійська
переклад: оригінал
кодек: 5.1
бітрейт: 448 кб/с

Субтитри # 1-2:
мова: українська (Forced, Full)
тип: програмні (м'які)
формат: *.srt

Субтитри # 3-4:
мова: англійська (Full, SDH)
тип: програмні (м'які)
формат: *.srt


Info
Код:
General
Unique ID                                : 267481147248276951414166773169677054529 (0xC93AFEBF2A505251292D3C163CC2B241)
Complete name                            : F:\Video\John Wick. Diology (2014-2017) 1080p H.265\1. John Wick (2014) 1080p H.265 [UKR_ENG].
Format                                   :
Format version                           : Version 4 / Version 2
File size                                : 3.61 GiB
Duration                                 : 1 h 41 min
Overall bit rate                         : 5 106 kb/s
Movie name                               : John Wick (2014)
Encoded date                             : UTC 2018-10-08 20:19:33
Writing application                      : v20.0.0 ('I Am The Sun') 32-bit
Writing library                          : libebml v1.3.5 + v1.4.8
Cover                                    : Yes
Attachments                              : Cover.jpg

Video
ID                                       : 1
Format                                   : HEVC
Format/Info                              : High Efficiency Video Coding
Format profile                           : Main [email protected]@Main
Codec ID                                 : V_MPEGH/ISO/HEVC
Duration                                 : 1 h 41 min
Bit rate                                 : 4 464 kb/s
Width                                    : 1 920 pixels
Height                                   : 800 pixels
Display aspect ratio                     : 2.40:1
Frame rate mode                          : Constant
Frame rate                               : 23.976 (24000/1001) FPS
Color space                              : YUV
Chroma subsampling                       : 4:2:0
Bit depth                                : 10 bits
Bits/(Pixel*Frame)                       : 0.121
Stream size                              : 3.16 GiB (87%)
Writing library                          : x265 2.8+40-0106f9f2f867:[Windows][GCC 7.3.0][64 bit] 10bit
Encoding settings                        : cpuid=1111039 / frame-threads=3 / numa-pools=8 / wpp / no-pmode / no-pme / no-psnr / no-ssim / log-level=2 / input-csp=1 / input-res=1920x800 / interlace=0 / total-frames=145604 / level-idc=0 / high-tier=1 / uhd-bd=0 / ref=4 / no-allow-non-conformance / no-repeat-headers / annexb / no-aud / no-hrd / info / hash=0 / no-temporal-layers / open-gop / min-keyint=23 / keyint=250 / gop-lookahead=0 / bframes=4 / b-adapt=2 / b-pyramid / bframe-bias=0 / rc-lookahead=25 / lookahead-slices=4 / scenecut=40 / radl=0 / no-intra-refresh / ctu=64 / min-cu-size=8 / rect / no-amp / max-tu-size=32 / tu-inter-depth=1 / tu-intra-depth=1 / limit-tu=0 / rdoq-level=2 / dynamic-rd=0.00 / no-ssim-rd / signhide / no-tskip / nr-intra=0 / nr-inter=0 / no-constrained-intra / strong-intra-smoothing / max-merge=3 / limit-refs=3 / limit-modes / me=3 / subme=3 / merange=57 / temporal-mvp / weightp / no-weightb / no-analyze-src-pics / deblock=0:0 / sao / no-sao-non-deblock / rd=4 / no-early-skip / rskip / no-fast-intra / no-tskip-fast / no-cu-lossless / no-b-intra / no-splitrd-skip / rdpenalty=0 / psy-rd=2.00 / psy-rdoq=1.00 / no-rd-refine / no-lossless / cbqpoffs=0 / crqpoffs=0 / rc=crf / crf=18.0 / qcomp=0.60 / qpstep=4 / stats-write=0 / stats-read=0 / ipratio=1.40 / pbratio=1.30 / aq-mode=3 / aq-strength=1.00 / cutree / zone-count=0 / no-strict-cbr / qg-size=32 / no-rc-grain / qpmax=69 / qpmin=0 / no-const-vbv / sar=0 / overscan=0 / videoformat=5 / range=0 / colorprim=2 / transfer=2 / colormatrix=2 / chromaloc=0 / display-window=0 / max-cll=0,0 / min-luma=0 / max-luma=1023 / log2-max-poc-lsb=8 / vui-timing-info / vui-hrd-info / slices=1 / no-opt-qp-pps / no-opt-ref-list-length-pps / no-multi-pass-opt-rps / scenecut-bias=0.05 / no-opt-cu-delta-qp / aq-motion / no-hdr / no-hdr-opt / no-dhdr10-opt / no-idr-recovery-sei / analysis-reuse-level=5 / scale-factor=0 / refine-intra=0 / refine-inter=0 / refine-mv=0 / no-limit-sao / ctu-info=0 / no-lowpass-dct / refine-mv-type=0 / copy-pic=1 / max-ausize-factor=1.0 / no-dynamic-refine / no-single-sei
Default                                  : Yes
Forced                                   : No

Audio #1
ID                                       : 2
Format                                   : AC-3
Format/Info                              : Audio Coding 3
Codec ID                                 : A_AC3
Duration                                 : 1 h 41 min
Bit rate mode                            : Constant
Bit rate                                 : 192 kb/s
Channel(s)                               : 2 channels
Channel positions                        : Front: L R
Sampling rate                            : 48.0 kHz
Frame rate                               : 31.250 FPS (1536 SPF)
Bit depth                                : 16 bits
Compression mode                         : Lossy
Stream size                              : 139 MiB (4%)
Title                                    : 2.0 @ 192 kbps
Language                                 : Ukrainian
Service kind                             : Complete Main
Default                                  : Yes
Forced                                   : Yes

Audio #2
ID                                       : 3
Format                                   : AC-3
Format/Info                              : Audio Coding 3
Codec ID                                 : A_AC3
Duration                                 : 1 h 41 min
Bit rate mode                            : Constant
Bit rate                                 : 448 kb/s
Channel(s)                               : 6 channels
Channel positions                        : Front: L C R, Side: L R, LFE
Sampling rate                            : 48.0 kHz
Frame rate                               : 31.250 FPS (1536 SPF)
Bit depth                                : 16 bits
Compression mode                         : Lossy
Stream size                              : 324 MiB (9%)
Title                                    : 5.1 @ 448 kbps
Language                                 : English
Service kind                             : Complete Main
Default                                  : No
Forced                                   : No

Text #1
ID                                       : 4
Format                                   : UTF-8
Codec ID                                 : S_TEXT/UTF8
Codec ID/Info                            : UTF-8 Plain Text
Duration                                 : 1 h 13 min
Bit rate                                 : 3 b/s
Count of elements                        : 45
Stream size                              : 2.03 KiB (0%)
Title                                    : Forced
Language                                 : Ukrainian
Default                                  : Yes
Forced                                   : Yes

Text #2
ID                                       : 5
Format                                   : UTF-8
Codec ID                                 : S_TEXT/UTF8
Codec ID/Info                            : UTF-8 Plain Text
Duration                                 : 1 h 33 min
Bit rate                                 : 37 b/s
Count of elements                        : 617
Stream size                              : 25.6 KiB (0%)
Title                                    : Full
Language                                 : Ukrainian
Default                                  : No
Forced                                   : No

Text #3
ID                                       : 6
Format                                   : UTF-8
Codec ID                                 : S_TEXT/UTF8
Codec ID/Info                            : UTF-8 Plain Text
Duration                                 : 1 h 33 min
Bit rate                                 : 21 b/s
Count of elements                        : 554
Stream size                              : 14.9 KiB (0%)
Title                                    : Full
Language                                 : English
Default                                  : No
Forced                                   : No

Text #4
ID                                       : 7
Format                                   : UTF-8
Codec ID                                 : S_TEXT/UTF8
Codec ID/Info                            : UTF-8 Plain Text
Duration                                 : 1 h 40 min
Bit rate                                 : 30 b/s
Count of elements                        : 854
Stream size                              : 22.8 KiB (0%)
Title                                    : SDH
Language                                 : English
Default                                  : No
Forced                                   : No

Menu
00:00:00.000                             : en:Chapter 01
00:04:57.505                             : en:Chapter 02
00:12:21.866                             : en:Chapter 03
00:17:07.735                             : en:Chapter 04
00:26:25.166                             : en:Chapter 05
00:32:40.249                             : en:Chapter 06
00:36:24.599                             : en:Chapter 07
00:42:16.033                             : en:Chapter 08
00:45:33.272                             : en:Chapter 09
00:55:02.507                             : en:Chapter 10
00:59:27.564                             : en:Chapter 11
01:06:13.427                             : en:Chapter 12
01:14:15.909                             : en:Chapter 13
01:19:13.039                             : en:Chapter 14
01:27:29.786                             : en:Chapter 15
01:32:24.789                             : en:Chapter 16
Скріншоти




Підтримати купівлю інших фільмів можна тут.
Подяка пану Vasua95 і пану patriot2305 за українську доріжку
2. Джон Вік 2 / John Wick: Chapter Two (2017) 1080p H.265 Ukr(Mic)/Eng | Sub Eng
Джон Вік 2 / John Wick: Chapter Two (2017) 1080p H.265 Ukr(Mic)/Eng | Sub Eng

Джон Вік. Диологія / John Wick. Diology (2014-2017) 1080p H.265 Ukr/Eng | Sub Ukr/Eng


Актори: Кіану Рівз, Рубі Роуз, Йен МакШейн, Бріджет Мойнехен, Джон Легуізамо, Лонні Рашид Лінн, Петер Стормаре, Лоуренс Фішберн, Ленс Реддік, Томас Садоскі та інші

Сюжет:
Джон Вік не вміє відпочивати. Навіть коли здається, що він пішов на спочинок, найманець повернеться, якщо потрібно. Колишній співробітник Джона хоче захопити контроль над таємничою гільдією міжнародних кілерів. Вїк повинен повернуться з відставки і боротися з найнебезпечнішими вбивцями в усьому світі. Рим чекає його, а там же буде і улюблений "Мустанг" Джона 1969 року.


Тривалість: 02:02:22
Якість:
Відео:
кодек: H.265 (HEVC)
розмір кадру: 1920 х 804
бітрейт: 5 380 кб/с
бітова глибина: 10 біт
Увага! Перед завантаженням переконайтесь, що ваш пристрій відтворення (та/або ПЗ) підтримує H.265 (HEVC)

Аудіо # 1:
мова: українська
переклад: професійний дубльований | студія Tretyakoff production | Mic
кодек: 2.0
бітрейт: 192 кб/с

Аудіо # 2:
мова: англійська
переклад: оригінал
кодек: 5.1
бітрейт: 384 кб/с

Субтитри:
мова: англійська (Full)
тип: програмні (м'які)
формат: *.srt


Info
Код:
General
Unique ID                                : 307516377554937774140846894237763370531 (0xE7597FFF7E0D8F140F274831B7A5FE23)
Complete name                            : F:\Video\John Wick. Diology (2014-2017) 1080p H.265\2. John Wick - Chapter 2 (2017) 1080p H.265 [UKR_ENG].
Format                                   :
Format version                           : Version 4 / Version 2
File size                                : 5.08 GiB
Duration                                 : 2 h 2 min
Overall bit rate                         : 5 941 kb/s
Movie name                               : John Wick. Chapter 2 (2017)
Encoded date                             : UTC 2018-10-09 14:28:38
Writing application                      : v20.0.0 ('I Am The Sun') 32-bit
Writing library                          : libebml v1.3.5 + v1.4.8
Cover                                    : Yes
Attachments                              : cover.jpg

Video
ID                                       : 1
Format                                   : HEVC
Format/Info                              : High Efficiency Video Coding
Format profile                           : Main [email protected]@Main
Codec ID                                 : V_MPEGH/ISO/HEVC
Duration                                 : 2 h 2 min
Bit rate                                 : 5 380 kb/s
Width                                    : 1 920 pixels
Height                                   : 800 pixels
Display aspect ratio                     : 2.40:1
Frame rate mode                          : Constant
Frame rate                               : 23.976 (24000/1001) FPS
Color space                              : YUV
Chroma subsampling                       : 4:2:0
Bit depth                                : 10 bits
Bits/(Pixel*Frame)                       : 0.146
Stream size                              : 4.60 GiB (91%)
Writing library                          : x265 2.8+40-0106f9f2f867:[Windows][GCC 7.3.0][64 bit] 10bit
Encoding settings                        : cpuid=1111039 / frame-threads=3 / numa-pools=8 / wpp / no-pmode / no-pme / no-psnr / no-ssim / log-level=2 / input-csp=1 / input-res=1920x800 / interlace=0 / total-frames=176041 / level-idc=0 / high-tier=1 / uhd-bd=0 / ref=4 / no-allow-non-conformance / no-repeat-headers / annexb / no-aud / no-hrd / info / hash=0 / no-temporal-layers / open-gop / min-keyint=23 / keyint=250 / gop-lookahead=0 / bframes=4 / b-adapt=2 / b-pyramid / bframe-bias=0 / rc-lookahead=25 / lookahead-slices=4 / scenecut=40 / radl=0 / no-intra-refresh / ctu=64 / min-cu-size=8 / rect / no-amp / max-tu-size=32 / tu-inter-depth=1 / tu-intra-depth=1 / limit-tu=0 / rdoq-level=2 / dynamic-rd=0.00 / no-ssim-rd / signhide / no-tskip / nr-intra=0 / nr-inter=0 / no-constrained-intra / strong-intra-smoothing / max-merge=3 / limit-refs=3 / limit-modes / me=3 / subme=3 / merange=57 / temporal-mvp / weightp / no-weightb / no-analyze-src-pics / deblock=0:0 / sao / no-sao-non-deblock / rd=4 / no-early-skip / rskip / no-fast-intra / no-tskip-fast / no-cu-lossless / no-b-intra / no-splitrd-skip / rdpenalty=0 / psy-rd=2.00 / psy-rdoq=1.00 / no-rd-refine / no-lossless / cbqpoffs=0 / crqpoffs=0 / rc=crf / crf=18.0 / qcomp=0.60 / qpstep=4 / stats-write=0 / stats-read=0 / ipratio=1.40 / pbratio=1.30 / aq-mode=3 / aq-strength=1.00 / cutree / zone-count=0 / no-strict-cbr / qg-size=32 / no-rc-grain / qpmax=69 / qpmin=0 / no-const-vbv / sar=0 / overscan=0 / videoformat=5 / range=0 / colorprim=2 / transfer=2 / colormatrix=2 / chromaloc=0 / display-window=0 / max-cll=0,0 / min-luma=0 / max-luma=1023 / log2-max-poc-lsb=8 / vui-timing-info / vui-hrd-info / slices=1 / no-opt-qp-pps / no-opt-ref-list-length-pps / no-multi-pass-opt-rps / scenecut-bias=0.05 / no-opt-cu-delta-qp / aq-motion / no-hdr / no-hdr-opt / no-dhdr10-opt / no-idr-recovery-sei / analysis-reuse-level=5 / scale-factor=0 / refine-intra=0 / refine-inter=0 / refine-mv=0 / no-limit-sao / ctu-info=0 / no-lowpass-dct / refine-mv-type=0 / copy-pic=1 / max-ausize-factor=1.0 / no-dynamic-refine / no-single-sei
Default                                  : Yes
Forced                                   : No

Audio #1
ID                                       : 2
Format                                   : AC-3
Format/Info                              : Audio Coding 3
Codec ID                                 : A_AC3
Duration                                 : 2 h 2 min
Bit rate mode                            : Constant
Bit rate                                 : 192 kb/s
Channel(s)                               : 2 channels
Channel positions                        : Front: L R
Sampling rate                            : 48.0 kHz
Frame rate                               : 31.250 FPS (1536 SPF)
Bit depth                                : 16 bits
Compression mode                         : Lossy
Stream size                              : 168 MiB (3%)
Title                                    : 2.0 @ 192 kbps - DUB, Mic
Language                                 : Ukrainian
Service kind                             : Complete Main
Default                                  : Yes
Forced                                   : No

Audio #2
ID                                       : 3
Format                                   : AC-3
Format/Info                              : Audio Coding 3
Codec ID                                 : A_AC3
Duration                                 : 1 h 57 min
Bit rate mode                            : Constant
Bit rate                                 : 384 kb/s
Channel(s)                               : 6 channels
Channel positions                        : Front: L C R, Side: L R, LFE
Sampling rate                            : 48.0 kHz
Frame rate                               : 31.250 FPS (1536 SPF)
Bit depth                                : 16 bits
Compression mode                         : Lossy
Stream size                              : 322 MiB (6%)
Title                                    : Original
Language                                 : English
Service kind                             : Complete Main
Default                                  : No
Forced                                   : No

Text
ID                                       : 4
Format                                   : UTF-8
Codec ID                                 : S_TEXT/UTF8
Codec ID/Info                            : UTF-8 Plain Text
Duration                                 : 1 h 49 min
Bit rate                                 : 22 b/s
Count of elements                        : 671
Stream size                              : 17.7 KiB (0%)
Title                                    : Full
Language                                 : English
Default                                  : Yes
Forced                                   : No

Menu
00:00:00.000                             : en:Chapter 01
00:06:31.682                             : en:Chapter 02
00:16:57.933                             : en:Chapter 03
00:26:35.594                             : en:Chapter 04
00:34:38.034                             : en:Chapter 05
00:42:07.816                             : en:Chapter 06
00:48:07.050                             : en:Chapter 07
00:56:41.648                             : en:Chapter 08
01:01:42.782                             : en:Chapter 09
01:10:27.681                             : en:Chapter 10
01:17:15.922                             : en:Chapter 11
01:24:22.640                             : en:Chapter 12
01:32:11.234                             : en:Chapter 13
01:40:01.328                             : en:Chapter 14
01:46:34.763                             : en:Chapter 15
01:54:01.042                             : en:Chapter 16
Скріншоти




Подяка пану Koful за мікрофонний запис, синхронізація Electroz

Джерело:
Особиста оцінка: 10 - без зайвих вагань рекомендую всім!


Бронзовий реліз (на рейтинг впливає 75% завантаженого)
 Трекер:    Зареєстрований   

Завантажити / скачати фільм українською



відео для новачків



 Зареєстрований:   2018-10-10 11:16
 Розмір:   8.69 GB 
 Оцінка фільму:   9.9/10 (Голосів: 11)
   
Ubub 
Частий відвідувач


З нами з: 20.01.12
Востаннє: 17.10.18
Повідомлень: 33

2018-10-10 11:27  
Швидкості
-Star-Lord- 
Поважний учасник


З нами з: 09.08.18
Востаннє: 17.10.18
Повідомлень: 197

2018-10-10 11:36  
Ubub
Готово. Та останнім часом інтернет в мене працює, просто препаскудно, тому вибачте.

11FrYkT 
Модератор відео


З нами з: 20.02.11
Востаннє: 17.10.18
Повідомлень: 5079

2018-10-10 13:43  
-Star-Lord- , у Вас оформлення 2 частини під спойлером 1
-Star-Lord- 
Поважний учасник


З нами з: 09.08.18
Востаннє: 17.10.18
Повідомлень: 197

2018-10-10 14:02  
11FrYkT
Поправив

Ваш часовий пояс: GMT + 2 Години

Нова тема   Відповісти