Северіно / Severino (1978) Remux 1080i Ukr/Ger

Нові коментарі

Нова тема   Відповісти
Автор Повідомлення
kryk-v.ya. 
VIP


З нами з: 14.02.14
Востаннє: 21.10.18
Повідомлень: 620

2018-10-09 21:39  
Северіно / Severino (1978) Remux 1080i Ukr/Ger

Северіно / Severino (1978) Remux 1080i Ukr/Ger


Жанр: вестерн, драма
Країна: НДР



Кінокомпанія: Deutsche Film (DEFA)
Режисер: Клаус Добберке
Актори: Ґойко Мітіч, Віолетта Андреі, Мірча Ангелеску та інші

Сюжет:
Долина аргентинських Анд, де живе вимираюче плем'я монсанеро. Після 10-річної відсутності гордий Северіно повертається в рідні краї навідати батька. Але його вже немає в живих. Він став випадковим свідком таємничої події і був убитий. Всі намагаються розгадати загадку містичного перевалу Кондора — місця, де здійснюються страшні злочини. Северіно починає власне розслідування.


Тривалість: 01:18:30
Якість: Remux 1080i
Відео:
кодек:
розмір кадру: 1920 х 1080
бітрейт: 28,8 Mб/с

Аудіо # 1:
мова: українська
переклад: двоголосий закадровий
кодек: 2.0
бітрейт: 192 кб/с

Аудіо # 2:
мова: німецька
переклад: оригінал
кодек: -HD MA 2.0
бітрейт: 1661 кб/с
Info
General
Unique ID : 173057309810740155857700930933365372700 (0x8231A021289B20C1F3E319963BF7771C)
Complete name : E:\Severino (1978) Remux 1080i.
Format :
Format version : Version 4 / Version 2
File size : 16.8 GiB
Duration : 1 h 18 min
Overall bit rate mode : Variable
Overall bit rate : 30.6 Mb/s
Encoded date : UTC 2018-10-09 17:39:42
Writing application : v25.0.0 ('Prog Noir') 64-bit
Writing library : libebml v1.3.6 + v1.4.9
Attachments : 0015.jpg

Video
ID : 1
Format : AVC
Format/Info : Advanced Video Codec
Format profile : [email protected]
Format settings : CABAC / 4 Ref Frames
Format settings, CABAC : Yes
Format settings, ReFrames : 4 frames
Codec ID : V_MPEG4/ISO/AVC
Duration : 1 h 18 min
Bit rate mode : Variable
Bit rate : 28.8 Mb/s
Maximum bit rate : 35.0 Mb/s
Width : 1 920 pixels
Height : 1 080 pixels
Display aspect ratio : 16:9
Frame rate mode : Constant
Frame rate : 25.000 FPS
Standard : PAL
Color space : YUV
Chroma subsampling : 4:2:0
Bit depth : 8 bits
Scan type : MBAFF
Bits/(Pixel*Frame) : 0.555
Stream size : 15.8 GiB (94%)
Default : Yes
Forced : No
Color range : Limited
Color primaries : BT.709
Transfer characteristics : BT.709
Matrix coefficients : BT.709

Audio #1
ID : 2
Format : AC-3
Format/Info : Audio Coding 3
Commercial name : Dolby Digital
Codec ID : A_AC3
Duration : 1 h 18 min
Bit rate mode : Constant
Bit rate : 192 kb/s
Channel(s) : 2 channels
Channel layout : L R
Sampling rate : 48.0 kHz
Frame rate : 31.250 FPS (1536 SPF)
Bit depth : 16 bits
Compression mode : Lossy
Stream size : 108 MiB (1%)
Title : DVO-(Ентер-фільм)
Language : Ukrainian
Service kind : Complete Main
Default : Yes
Forced : No

Audio #2
ID : 3
Format : XLL
Format/Info : Digital Theater Systems
Commercial name : -HD Master Audio
Codec ID : A_DTS
Duration : 1 h 18 min
Bit rate mode : Variable
Bit rate : 1 661 kb/s
Channel(s) : 2 channels
Channel layout : L R
Sampling rate : 48.0 kHz
Frame rate : 93.750 FPS (512 SPF)
Bit depth : 16 bits
Compression mode : Lossless
Stream size : 933 MiB (5%)
Title : Оригінал
Language : German
Default : No
Forced : No

Menu
00:00:00.000 : en:00:00:00.000 / en:Глава 01
00:15:03.600 : en:00:15:03.600
00:28:55.720 : en:00:28:55.720
00:41:33.960 : en:00:41:33.960
00:57:46.480 : en:00:57:46.480
01:13:55.360 : en:01:13:55.360
Скріншоти




Збережено оригінальні розділи, як на Blu-ray.

Джерело: &
Особиста оцінка: 8 - мені сподобалося

Велика подяка пану krigg070 за роботу над звуковою доріжкою.


Золотий реліз (завантажене не впливає на рейтинг)
 Трекер:    Зареєстрований   

Завантажити / скачати фільм українською



відео для новачків



 Зареєстрований:   2018-10-09 21:39
 Розмір:   16.79 GB 
 Оцінка фільму:   10/10 (Голосів: 4)
   
Інші релізи
   Северіно / Severino (1978) krigg070  1 / 0   1.28 GB   2017-12-10 14:43 
Ваш часовий пояс: GMT + 2 Години

Нова тема   Відповісти