Мег / The Meg (2018) 1080p Ukr/Eng | Sub Kor

Нові коментарі

Нова тема   Відповісти
Автор Повідомлення
staf777 
Попереджень: 1
Попереджень: 1 


З нами з: 16.11.16
Востаннє: 16.10.18
Повідомлень: 1632

2018-10-09 20:57  
Мег / The Meg (2018) 1080p Ukr/Eng | Sub Kor


Альтернативний постер

«Спробуй, вкуси»



Жанр: бойовик, жахи, трилер, фантастика
Країна: Китай, США



Кінокомпанія: Apelles Entertainment,Di Bonaventura Pictures,Flagship Entertainment Group
Режисер: Джон Тертелтауб
Актори: Джейсон Стетхем, Лі Бінбін, Рейн Вілсон, Кліфф Кертіс, Рубі Роуз, Пейдж Кеннеді, Роберт Тейлор

Сюжет:
Професор палеонтології Джонас Тейлор, в минулому елітний пілот глибоководних апаратів, вже багато років пише про меге і читає лекції, намагаючись забути незабутнє - трагічно закінчився експедицію, яка переконала його в тому, що первісне чудовисько існує і в наші дні. При секретному зануренні в найглибший океанський каньйон Тейлор ледь врятувався від величезних щелеп доісторичного чудовиська, здатного підняти з води навіть тиранозавра. Тейлору пропонували зробити ще більш глибоке занурення. Те, що він, можливо, знайде, має змусити замовкнути скептиків, але, коли ця знахідка буде піднято з дна, океанські припливи стануть криваво-червоними до кінця часів.


Тривалість: 01:54:39
Якість: 1080p

Відео:
кодек:
розмір кадру: 1920x804
бітрейт: 6000 кб/с

Увага! Корейський хардсаб!


Аудіо # 1:
мова: українська
переклад: професійний дубльований
кодек: 2.0 (стерео)
бітрейт: 192 кб/с

Аудіо # 2:
мова: англійська
переклад: оригінал
кодек: 5.1
бітрейт: 384 кб/с

Субтитри:
мова: корейська
тип: вбудовані (жорсткі)
Info
Код:
General
Unique ID                   : 304909507755210038865417571940143806525 (0xE5636F64C5B4C842038346DC4715383D)
Complete name               : N:\Фільми HD\Жахи\The Meg (2018) 1080p [UKR_ENG] [Hurtom].
Format                      :
Format version              : Version 4 / Version 2
File size                   : 5.28 GiB
Duration                    : 1 h 54 min
Overall bit rate            : 6 595 kb/s
Movie name                  : The Meg (2018) 1080p [UKR_ENG] [Hurtom]
Encoded date                : UTC 2018-10-09 19:57:46
Writing application         : v24.0.0 ('Beyond The Pale') 64-bit
Writing library             : libebml v1.3.6 + v1.4.9
Cover                       : Yes
Attachments                 : cover.jpg

Video
ID                          : 1
Format                      : AVC
Format/Info                 : Advanced Video Codec
Format profile              : [email protected]
Format settings             : CABAC / 4 Ref Frames
Format settings, CABAC      : Yes
Format settings, ReFrames   : 4 frames
Codec ID                    : V_MPEG4/ISO/AVC
Duration                    : 1 h 54 min
Bit rate                    : 6 000 kb/s
Width                       : 1 920 pixels
Height                      : 804 pixels
Display aspect ratio        : 2.40:1
Frame rate mode             : Constant
Frame rate                  : 23.976 (24000/1001) FPS
Color space                 : YUV
Chroma subsampling          : 4:2:0
Bit depth                   : 8 bits
Scan type                   : Progressive
Bits/(Pixel*Frame)          : 0.162
Stream size                 : 4.61 GiB (87%)
Writing library             : core 148 r2795M aaa9aa8
Encoding settings           : cabac=1 / ref=4 / deblock=1:0:0 / analyse=0x3:0x113 / me=umh / subme=9 / psy=1 / psy_rd=1.00:0.00 / mixed_ref=1 / me_range=16 / chroma_me=1 / trellis=2 / 8x8dct=1 / cqm=0 / deadzone=21,11 / fast_pskip=1 / chroma_qp_offset=-2 / threads=40 / lookahead_threads=3 / sliced_threads=0 / nr=0 / decimate=1 / interlaced=0 / bluray_compat=0 / constrained_intra=0 / bframes=3 / b_pyramid=2 / b_adapt=2 / b_bias=0 / direct=3 / weightb=1 / open_gop=0 / weightp=2 / keyint=250 / keyint_min=23 / scenecut=40 / intra_refresh=0 / rc_lookahead=50 / rc=abr / mbtree=1 / bitrate=6000 / ratetol=1.0 / qcomp=0.60 / qpmin=0 / qpmax=69 / qpstep=4 / ip_ratio=1.40 / aq=1:1.00
Language                    : English
Default                     : Yes
Forced                      : No

Audio #1
ID                          : 2
Format                      : AC-3
Format/Info                 : Audio Coding 3
Codec ID                    : A_AC3
Duration                    : 1 h 54 min
Bit rate mode               : Constant
Bit rate                    : 192 kb/s
Channel(s)                  : 2 channels
Channel positions           : Front: L R
Sampling rate               : 48.0 kHz
Frame rate                  : 31.250 FPS (1536 SPF)
Bit depth                   : 16 bits
Compression mode            : Lossy
Stream size                 : 157 MiB (3%)
Language                    : Ukrainian
Service kind                : Complete Main
Default                     : Yes
Forced                      : Yes

Audio #2
ID                          : 3
Format                      : AC-3
Format/Info                 : Audio Coding 3
Codec ID                    : A_AC3
Duration                    : 1 h 54 min
Bit rate mode               : Constant
Bit rate                    : 640 kb/s
Channel(s)                  : 6 channels
Channel positions           : Front: L C R, Side: L R, LFE
Sampling rate               : 48.0 kHz
Frame rate                  : 31.250 FPS (1536 SPF)
Bit depth                   : 16 bits
Compression mode            : Lossy
Stream size                 : 525 MiB (10%)
Language                    : English
Service kind                : Complete Main
Default                     : No
Forced                      : No





Подяка пану Electroz за синхронізацію.

Джерело: & &
Особиста оцінка: 0 - не дивився


 Трекер:    Зареєстрований   

Завантажити / скачати фільм українською



відео для новачків



 Зареєстрований:   2018-10-09 23:06
 Розмір:   5.28 GB 
 Оцінка фільму:   7.8/10 (Голосів: 15)
   
Інші релізи
   Мег / The Meg (2018) Ukr | Sub Kor 11FrYkT  40 / 4   1.44 GB   2018-10-09 22:17 
   Мег / The Meg (2018) 720p Ukr/Eng | Sub Eng/Kor 11FrYkT  48 / 0   3.48 GB   2018-10-09 21:52 
   Мег / The Meg (2018) AVC Ukr/Eng | Sub Kor uafilm.tv  87 / 5   1.51 GB   2018-10-09 21:35 
MrRyanCooper 
VIP


З нами з: 24.08.12
Востаннє: 16.10.18
Повідомлень: 467

2018-10-09 22:51  
Велика вам дяка за швидкість викладення цього кіна Happy Така величезна як цей...МЕГ Happy
staf777 
Попереджень: 1
Попереджень: 1 


З нами з: 16.11.16
Востаннє: 16.10.18
Повідомлень: 1632

2018-10-09 23:08  
Вибачаюсь скріни додам завтра - перекурив лягаю спати
Panther2214 
Свій


З нами з: 29.09.17
Востаннє: 16.10.18
Повідомлень: 115

2018-10-09 23:29  
А коли буде кращий ріп 720 чи 1080? Не хочеться дивитись у поганій якості чи російською, скільки чекати? Комусь щось відомо про подальшу долю фільму?
respect14 
VIP


З нами з: 26.01.11
Востаннє: 16.10.18
Повідомлень: 538

2018-10-10 16:28  
А коли буде без хардсабів кор?
орестт 
Новенький


З нами з: 20.04.09
Востаннє: 15.10.18
Повідомлень: 4

2018-10-10 19:53  
Прохання поправити опис сюжету. Наприклад "... намагаючись забути незабутнє - трагічно закінчився експедицію". Або " ... коли ця знахідка буде піднято з дна"
KeryaS 
Свій


З нами з: 01.09.14
Востаннє: 16.10.18
Повідомлень: 95

2018-10-12 06:57  
Досить посередній фільм, на сценаристові дуже сильно зекономили.
Ваш часовий пояс: GMT + 2 Години

Нова тема   Відповісти