Екзотичне весілля / Destination Wedding (2018) 1080p Ukr/Eng | Sub Eng

Нові коментарі

Нова тема   Відповісти
Автор Повідомлення
staf777 
Попереджень: 1
Попереджень: 1 


З нами з: 16.11.16
Востаннє: 21.10.18
Повідомлень: 1642

2018-10-09 20:24  
Екзотичне весілля / Destination Wedding (2018) 1080p Ukr/Eng | Sub Eng

Екзотичне весілля / Destination Wedding (2018) 1080p Ukr/Eng | Sub Eng


Жанр: драма, комедія, мелодрама
Країна: США



Кінокомпанія: thefyzz, CISS, Chapman-Leonard
Режисер: Віктор Левін
Актори: Кіану Рівз, Вайнона Райдер, Грег Люсі, Тед Дубост, Д. Рош Райт, Майкл Могалл

Сюжет:
Ліндсі та Френка запрошено на весілля. Її – до колишнього нареченого, де вона збирається нарешті поставити для себе крапку в їхніх давно завершених стосунках. Його – до звідного брата, якого краще б не бачив. Вони опиняються разом у літаку, у таксі, у сусідніх номерах, за столом. Вони з тієї категорії гостей, яких нема до кого прилаштувати. Вони вже неабияк дратують одне одного, але дітися їм нема куди. А весілля лише починається!


Тривалість: 01:26:48
Якість: 1080p
Відео:
кодек:
розмір кадру: 1916x800
бітрейт: 4615 кб/с

Аудіо # 1:
мова: українська
переклад: професійний дубльований
кодек: 2.0 (стерео)
бітрейт: 192 кб/с

Аудіо # 2:
мова: англійська
переклад: оригінал
кодек: 5.1
бітрейт: 384 кб/с

Субтитри:
мова: англійська
тип: програмні (м'які)
формат: *.srt
Info
General
Unique ID : 14808685815401456293588649584617659230 (0xB240C94C2711BD5889BDA1DD7C51B5E)
Complete name : N:\Фільми HD\Комедія\Destination Wedding (2018) 1080p [UKR_ENG] [Hurtom].
Format :
Format version : Version 4 / Version 2
File size : 3.15 GiB
Duration : 1 h 26 min
Overall bit rate : 5 196 kb/s
Movie name : Destination Wedding (2018) 1080p [UKR_ENG] [Hurtom]
Encoded date : UTC 2018-10-09 17:14:34
Writing application : v24.0.0 ('Beyond The Pale') 64-bit
Writing library : libebml v1.3.6 + v1.4.9
Cover : Yes
Attachments : cover

Video
ID : 1
Format : AVC
Format/Info : Advanced Video Codec
Format profile : [email protected]
Format settings : CABAC / 5 Ref Frames
Format settings, CABAC : Yes
Format settings, ReFrames : 5 frames
Codec ID : V_MPEG4/ISO/AVC
Duration : 1 h 26 min
Bit rate : 4 615 kb/s
Width : 1 916 pixels
Height : 800 pixels
Display aspect ratio : 2.40:1
Frame rate mode : Constant
Frame rate : 23.976 (23976/1000) FPS
Color space : YUV
Chroma subsampling : 4:2:0
Bit depth : 8 bits
Scan type : Progressive
Bits/(Pixel*Frame) : 0.126
Stream size : 2.80 GiB (89%)
Language : English
Default : Yes
Forced : No
Color range : Limited
Color primaries : BT.709
Transfer characteristics : BT.709
Matrix coefficients : BT.709

Audio #1
ID : 2
Format : AC-3
Format/Info : Audio Coding 3
Codec ID : A_AC3
Duration : 1 h 26 min
Bit rate mode : Constant
Bit rate : 192 kb/s
Channel(s) : 2 channels
Channel positions : Front: L R
Sampling rate : 48.0 kHz
Frame rate : 31.250 FPS (1536 SPF)
Bit depth : 16 bits
Compression mode : Lossy
Delay relative to video : -42 ms
Stream size : 119 MiB (4%)
Title : 2.0 @ 192 kbps
Language : Ukrainian
Service kind : Complete Main
Default : Yes
Forced : Yes

Audio #2
ID : 3
Format : AC-3
Format/Info : Audio Coding 3
Codec ID : A_AC3
Duration : 1 h 26 min
Bit rate mode : Constant
Bit rate : 384 kb/s
Channel(s) : 6 channels
Channel positions : Front: L C R, Side: L R, LFE
Sampling rate : 48.0 kHz
Frame rate : 31.250 FPS (1536 SPF)
Bit depth : 16 bits
Compression mode : Lossy
Delay relative to video : -42 ms
Stream size : 238 MiB (7%)
Title : Original
Language : English
Service kind : Complete Main
Default : No
Forced : No

Text
ID : 4
Format : UTF-8
Codec ID : S_TEXT/UTF8
Codec ID/Info : UTF-8 Plain Text
Duration : 1 h 21 min
Bit rate : 120 b/s
Count of elements : 1521
Stream size : 71.9 KiB (0%)
Language : English
Default : No
Forced : No

Menu
00:00:00.000 : en:1
00:05:14.105 : en:2
00:09:08.255 : en:3
00:15:54.703 : en:4
00:20:35.066 : en:5
00:24:38.851 : en:6
00:28:39.299 : en:7
00:31:59.415 : en:8
00:33:30.214 : en:9
00:37:30.037 : en:10
00:39:33.952 : en:11
00:45:11.664 : en:12
00:49:47.189 : en:13
00:50:47.082 : en:14
00:58:26.916 : en:15
01:06:52.212 : en:16
01:10:58.833 : en:17
01:15:55.713 : en:18
01:19:03.484 : en:19
01:21:41.475 : en:20
Скріншоти





Подяка пану Electroz за синхронізацію.
Джерело: &
Особиста оцінка: 0 - не дивився
Екзотичне весілля / Destination Wedding (2018) 1080p Ukr/Eng | Sub Eng

Екзотичне весілля / Destination Wedding (2018) 1080p Ukr/Eng | Sub Eng


 Трекер:    Зареєстрований   

Завантажити / скачати фільм українською



відео для новачків



 Зареєстрований:   2018-10-09 20:24
 Розмір:   3.15 GB 
 Оцінка фільму:   8.4/10 (Голосів: 34)
   
Інші релізи
+380954897458 
Свій


З нами з: 02.06.17
Востаннє: 20.10.18
Повідомлень: 73

2018-10-09 20:35  
Кіану та Вайнона вперше разом після "Дракули". Дуже цікаво...
kryk-v.ya. 
VIP


З нами з: 14.02.14
Востаннє: 21.10.18
Повідомлень: 620

2018-10-09 21:16  
О. Ріуз.Дякую...стара гвардія знову в строю.
Pirate_Bay 
Новенький


З нами з: 15.08.14
Востаннє: 20.10.18
Повідомлень: 3

2018-10-10 10:22  
Дуже скучно( На середині вимкнув і видалив.
OlehH2012 
Новенький


З нами з: 07.09.12
Востаннє: 10.10.18
Повідомлень: 20

2018-10-10 23:38  
Фільм просто супер!!!!! Порвало.....Це 100 з 10!!!!
Jogino 
Новенький


З нами з: 21.04.13
Востаннє: 21.10.18
Повідомлень: 21

2018-10-12 20:59  
Так, фільм на 10 балів.
Kiara 
Свій


З нами з: 18.08.10
Востаннє: 21.10.18
Повідомлень: 124

2018-10-14 19:38  
Кіану Рівз... Мій улюблений актор ще з мого далекого дитинства!...
vbrov 
Новенький


З нами з: 16.02.14
Востаннє: 20.10.18
Повідомлень: 7

2018-10-14 21:06  
Той випадок, коли все зрозуміло після 10 хвилин перегляду. Так, раз переглянути.
waldi-hurtom 
VIP


З нами з: 07.10.12
Востаннє: 21.10.18
Повідомлень: 815

2018-10-15 07:28  
Все було б чудово: гумор, діалоги (трохи забагато), прикольний переклад, ось тільки соромно за перестаркуватих заліцяльників. Це просто капець! Акторам 54 та 47 років. Нагадаю, Джульєті було 13, цієї красуні у 3.5(!) рази більше. У такому віці вже онуків можна бавити, а вони досі чекають відповіді від себе коханих. Прикольно, що життя акторів таке саме, як в героїв. 8 з 10.
Garikafterwork 
Новенький


З нами з: 02.10.12
Востаннє: 20.10.18
Повідомлень: 4

2018-10-20 20:24  
Шикарний фільм для шанувальників гарного сценарію та гри акторів. Дуже сподобався.
Ваш часовий пояс: GMT + 2 Години

Нова тема   Відповісти