Екзотичне весілля / Destination Wedding (2018) 1080p Ukr/Eng | Sub Eng

Нові коментарі

Нова тема   Відповісти
Автор Повідомлення
staf777 
Попереджень: 1
Попереджень: 1 


З нами з: 16.11.16
Востаннє: 10.12.18
Повідомлень: 1887

2018-10-09 19:24  
Екзотичне весілля / Destination Wedding (2018) 1080p Ukr/Eng | Sub Eng

Екзотичне весілля / Destination Wedding (2018) 1080p Ukr/Eng | Sub Eng


Жанр: драма, комедія, мелодрама
Країна: США



Кінокомпанія: thefyzz, CISS, Chapman-Leonard
Режисер: Віктор Левін
Актори: Кіану Рівз, Вайнона Райдер, Грег Люсі, Тед Дубост, Д. Рош Райт, Майкл Могалл

Сюжет:
Ліндсі та Френка запрошено на весілля. Її – до колишнього нареченого, де вона збирається нарешті поставити для себе крапку в їхніх давно завершених стосунках. Його – до звідного брата, якого краще б не бачив. Вони опиняються разом у літаку, у таксі, у сусідніх номерах, за столом. Вони з тієї категорії гостей, яких нема до кого прилаштувати. Вони вже неабияк дратують одне одного, але дітися їм нема куди. А весілля лише починається!


Тривалість: 01:26:48
Якість: 1080p
Відео:
кодек:
розмір кадру: 1980x804
бітрейт: 10.5 Mб/с

Аудіо # 1:
мова: українська
переклад: професійний дубльований | студія Pie Post Production
кодек: 2.0 (стерео)
бітрейт: 192 кб/с
Інформація про дубляж
Переклад: Олег Колесніков
Режисер дубляжу: Лідія Громовенко
Звукорежисер: Віталій Кандиба
Звукорежисер перезапису: Віталій Ящук
Ролі дублювали: Лідія Муращенко, Михайло Кришталь та інші.

Фільм дубльовано студією Pie Post Production на замовлення компанії "Ukrainian Film Distribution"
Аудіо # 2:
мова: англійська
переклад: оригінал
кодек: 5.1
бітрейт: 1509 кб/с

Субтитри:
мова: англійська
тип: програмні (м'які)
формат: *.srt
Info
General
Unique ID : 153088273081937501106726813206324778329 (0x732BBA9AEA0A3D7233129B3894951559)
Complete name : G:\Комедія\Destination Wedding (2018) 1080p [UKR][ENG][Hurtom].
Format :
Format version : Version 4 / Version 2
File size : 7.36 GiB
Duration : 1 h 26 min
Overall bit rate : 12.2 Mb/s
Movie name : Destination Wedding (2018) 1080p [UKR][ENG][Hurtom]
Encoded date : UTC 2018-12-01 22:13:20
Writing application : v24.0.0 ('Beyond The Pale') 64-bit
Writing library : libebml v1.3.6 + v1.4.9
Cover : Yes
Attachments : cover

Video
ID : 1
Format : AVC
Format/Info : Advanced Video Codec
Format profile : [email protected]
Format settings : CABAC / 5 Ref Frames
Format settings, CABAC : Yes
Format settings, ReFrames : 5 frames
Codec ID : V_MPEG4/ISO/AVC
Duration : 1 h 26 min
Bit rate : 10.5 Mb/s
Width : 1 920 pixels
Height : 804 pixels
Display aspect ratio : 2.40:1
Frame rate mode : Constant
Frame rate : 24.000 FPS
Color space : YUV
Chroma subsampling : 4:2:0
Bit depth : 8 bits
Scan type : Progressive
Bits/(Pixel*Frame) : 0.283
Stream size : 6.33 GiB (86%)
Title : selezen
Writing library : core 148 r2705kMod 3f5ed56
Encoding settings : cabac=1 / ref=5 / deblock=1:-2:-2 / analyse=0x3:0x133 / me=umh / subme=10 / psy=1 / fade_compensate=0.00 / psy_rd=1.05:0.05 / mixed_ref=1 / me_range=32 / chroma_me=1 / trellis=2 / 8x8dct=1 / cqm=0 / deadzone=21,11 / fast_pskip=0 / chroma_qp_offset=-3 / threads=12 / lookahead_threads=2 / sliced_threads=0 / nr=0 / decimate=0 / interlaced=0 / bluray_compat=0 / constrained_intra=0 / fgo=0 / bframes=8 / b_pyramid=2 / b_adapt=2 / b_bias=0 / direct=3 / weightb=1 / open_gop=0 / weightp=2 / keyint=240 / keyint_min=24 / scenecut=40 / intra_refresh=0 / rc_lookahead=50 / rc=2pass / mbtree=0 / bitrate=10470 / ratetol=1.0 / qcomp=0.60 / qpmin=0 / qpmax=51 / qpstep=4 / cplxblur=20.0 / qblur=0.5 / vbv_maxrate=50000 / vbv_bufsize=62500 / nal_hrd=none / filler=0 / ip_ratio=1.40 / pb_ratio=1.30 / aq=3:0.80
Language : English
Default : Yes
Forced : No

Audio #1
ID : 2
Format : AC-3
Format/Info : Audio Coding 3
Codec ID : A_AC3
Duration : 1 h 26 min
Bit rate mode : Constant
Bit rate : 192 kb/s
Channel(s) : 2 channels
Channel positions : Front: L R
Sampling rate : 48.0 kHz
Frame rate : 31.250 FPS (1536 SPF)
Bit depth : 16 bits
Compression mode : Lossy
Stream size : 119 MiB (2%)
Title : 2.0 @ 192 kbps
Language : Ukrainian
Service kind : Complete Main
Default : Yes
Forced : Yes

Audio #2
ID : 3
Format :
Format/Info : Digital Theater Systems
Codec ID : A_DTS
Duration : 1 h 26 min
Bit rate mode : Constant
Bit rate : 1 509 kb/s
Channel(s) : 6 channels
Channel positions : Front: L C R, Side: L R, LFE
Sampling rate : 48.0 kHz
Frame rate : 93.750 FPS (512 SPF)
Bit depth : 16 bits
Compression mode : Lossy
Stream size : 934 MiB (12%)
Title : Original
Language : English
Default : No
Forced : No

Text
ID : 4
Format : UTF-8
Codec ID : S_TEXT/UTF8
Codec ID/Info : UTF-8 Plain Text
Duration : 1 h 20 min
Bit rate : 124 b/s
Count of elements : 1520
Stream size : 73.7 KiB (0%)
Title : SDH Colored
Language : English
Default : No
Forced : No

Menu
00:00:00.000 : en:00:00:00.000
00:08:57.792 : en:00:08:57.792
00:14:35.042 : en:00:14:35.042
00:22:16.542 : en:00:22:16.542
00:28:27.667 : en:00:28:27.667
00:36:07.708 : en:00:36:07.708
00:41:29.167 : en:00:41:29.167
00:49:59.583 : en:00:49:59.583
00:58:12.250 : en:00:58:12.250
01:06:43.417 : en:01:06:43.417
01:15:41.250 : en:01:15:41.250
01:21:28.708 : en:01:21:28.708





Подяка пану Electroz за синхронізацію.
Джерело: &
Особиста оцінка: 0 - не дивився
Екзотичне весілля / Destination Wedding (2018) 1080p Ukr/Eng | Sub Eng

Екзотичне весілля / Destination Wedding (2018) 1080p Ukr/Eng | Sub Eng


 Трекер:    Зареєстрований   

Завантажити / скачати фільм українською



відео для новачків



 Зареєстрований:   2018-12-02 00:34
 Розмір:   7.36 GB 
 Оцінка фільму:   8.2/10 (Голосів: 65)
   
+380954897458 
Свій


З нами з: 02.06.17
Востаннє: 10.12.18
Повідомлень: 98

2018-10-09 19:35  
Кіану та Вайнона вперше разом після "Дракули". Дуже цікаво...
kryk-v.ya. 
VIP


З нами з: 14.02.14
Востаннє: 10.12.18
Повідомлень: 725

2018-10-09 20:16  
О. Ріуз.Дякую...стара гвардія знову в строю.
Pirate_Bay 
Новенький


З нами з: 15.08.14
Востаннє: 25.11.18
Повідомлень: 3

2018-10-10 09:22  
Дуже скучно( На середині вимкнув і видалив.
OlehH2012 
Новенький


З нами з: 07.09.12
Востаннє: 07.12.18
Повідомлень: 20

2018-10-10 22:38  
Фільм просто супер!!!!! Порвало.....Це 100 з 10!!!!
Jogino 
Новенький


З нами з: 21.04.13
Востаннє: 09.12.18
Повідомлень: 21

2018-10-12 19:59  
Так, фільм на 10 балів.
Kiara 
Свій


З нами з: 18.08.10
Востаннє: 08.12.18
Повідомлень: 125

2018-10-14 18:38  
Кіану Рівз... Мій улюблений актор ще з мого далекого дитинства!...
vbrov 
Новенький


З нами з: 16.02.14
Востаннє: 05.12.18
Повідомлень: 7

2018-10-14 20:06  
Той випадок, коли все зрозуміло після 10 хвилин перегляду. Так, раз переглянути.
waldi-hurtom 
VIP


З нами з: 07.10.12
Востаннє: 10.12.18
Повідомлень: 840

2018-10-15 06:28  
Все було б чудово: гумор, діалоги (трохи забагато), прикольний переклад, ось тільки соромно за перестаркуватих заліцяльників. Це просто капець! Акторам 54 та 47 років. Нагадаю, Джульєті було 13, цієї красуні у 3.5(!) рази більше. У такому віці вже онуків можна бавити, а вони досі чекають відповіді від себе коханих. Прикольно, що життя акторів таке саме, як в героїв. 8 з 10.
Garikafterwork 
Новенький


З нами з: 02.10.12
Востаннє: 09.12.18
Повідомлень: 5

2018-10-20 19:24  
Шикарний фільм для шанувальників гарного сценарію та гри акторів. Дуже сподобався.
vovang6 
Поважний учасник


З нами з: 27.08.12
Востаннє: 10.12.18
Повідомлень: 159

2018-10-21 16:05  
Специфічний фільм, Кіану Рівз це завжди круто.
repetitor1986 
Новенький


З нами з: 02.10.13
Востаннє: 21.11.18
Повідомлень: 6

2018-10-22 14:12  
Є зацікавленість, проте фільм дійсно скучний... Після сцени з ягуаром та іншими діями в полі прийшлось перемотувати. Ні каплі не жалкую, що перемотав.
Webber001 
Частий відвідувач


З нами з: 08.09.16
Востаннє: 09.12.18
Повідомлень: 33

2018-10-22 20:33  
Не зважаючи на негативні відгуки фільм сподобався. От сподобався і все... 10 з 10 Happy
armogun 
Поважний учасник


З нами з: 04.05.13
Востаннє: 10.12.18
Повідомлень: 215

2018-10-23 14:45  
Цей діалог можна слухати 6.
PetrukSasha 
Новенький


З нами з: 11.04.12
Востаннє: 11.11.18
Повідомлень: 1

2018-10-24 21:25  
Фільм жах, дуже нудний і монотонний. Подивились із жінкою 10 хвилин і вимкнули.
Kiara 
Свій


З нами з: 18.08.10
Востаннє: 08.12.18
Повідомлень: 125

2018-10-24 22:34  
Скільки людей, стільки думок.
Комусь - жах, комусь - шедевр.

Neptune_91 
Новенький


З нами з: 10.05.09
Востаннє: 01.12.18
Повідомлень: 4

2018-10-31 00:48  
Крутяк! 9/10
StreetAnge13l 
Новенький


З нами з: 13.08.10
Востаннє: 29.11.18
Повідомлень: 5

2018-11-28 00:40  
Дорослий фільм з передбачуваним закінченням. Подивилися з задоволенням.
staf777 
Попереджень: 1
Попереджень: 1 


З нами з: 16.11.16
Востаннє: 10.12.18
Повідомлень: 1887

2018-12-02 00:39  
Замінив відео на 1080p 
-Star-Lord- 
VIP


З нами з: 09.08.18
Востаннє: 10.12.18
Повідомлень: 329

2018-12-02 01:07  
staf777 написано:
Аудіо # 1: Line

Очікувати на кращий звук?

Ваш часовий пояс: GMT + 2 Години

Нова тема   Відповісти