Сам удома / Один удома. Збірка з двох частин / Home Alone: Dilogy (1990-1992) 1080р H.265 2хUkr/Eng | Sub Eng

Нові коментарі

Нова тема   Відповісти
Автор Повідомлення
-Star-Lord- 
VIP


З нами з: 09.08.18
Востаннє: 13.12.18
Повідомлень: 342

2018-10-09 16:05  
Сам удома / Один удома. Збірка з двох частин / Home Alone: Dilogy (1990-1992) 1080р H.265 2хUkr/Eng | Sub Eng

Сам удома / Один удома. Збірка з двох частин / Home Alone: Dilogy (1990-1992) 1080р H.265 2хUkr/Eng | Sub Eng


Кінокомпанія: Hughes Entertainment, Twentieth Century Fox Film Corporation
Режисер: Кріс Коламбус (Chris Columbus)
Жанр: пригодницький, комедія, сімейний
Країна: США

1. | 2.

1. Сам удома / Один удома / Home Alone (Remastered) (1990) 1080p H.265 2xUkr/Eng | Sub Ukr/Eng
Сам удома / Один удома / Home Alone [Remastered] (1990) 1080p H.265 2xUkr/Eng | Sub Ukr/Eng

Сам удома / Один удома. Збірка з двох частин / Home Alone: Dilogy (1990-1992) 1080р H.265 2хUkr/Eng | Sub Eng


Актори: Маколей Калкін (Macaulay Culkin), Джо Пеші (Joe Pesci), Деніел Стерн (Daniel Stern), Джон Герд (John Heard), Кетрін О'Гара (Catherine O'Hara), Джон Кенді (John Candy) та інші.

Сюжет:
Батьки забули вдома одного зі своїх численних дітей. Не страшно, коли батьки йдуть в гості до сусідів. Але в цій історії батьки поїхали до Парижу, а Кевін залишився в Америці. Один, хоч і в своєму будинку. Залишившись наодинці, хлопець спочатку зрадів, потім засумував, потім став думати чим би себе зайняти. Довго сумувати не довелось: опустілий будинок привернув увагу пари злодіїв-крадіїв. Маленькому хазяїну довелось вигадувати всілякі хитрощі, щоб захистити помешкання від бандитів.


Тривалість: 01:42:54
Якість: (Власний Rip)
Відео:
кодек: H.265 (HEVC)
розмір кадру: 1920 х 1036
бітрейт: 10.0 Mb/s
бітова глибина: 10 біт
Увага! Перед завантаженням переконайтесь, що ваш пристрій відтворення (та/або ПЗ) підтримує H.265 (HEVC)

Аудіо # 1:
мова: українська
переклад: двоголосий закадровий
кодек: 5.1
бітрейт: 1 510 кб/с
примітка: доріжка отримана шляхом накладання чистих голосів на центральний канал. HDCLUB

Аудіо # 2: ,
мова: українська
переклад: двоголосий закадровий
кодек: 2.0
бітрейт: 192 кб/с

Аудіо # 3:
мова: англійська
переклад: оригінал
кодек: 5.1
бітрейт: 448 кб/с

Субтитри # 1:
мова: українська (Full)
тип: програмні (м'які)
формат: *.srt
джерело: субтитри на 95% набрані з перекладу Студії 1+1
текст набирав: w2958l (Віктор)

Субтитри # 2:
мова: англійська (Full)
тип: програмні (м'які)
формат: *.srt


Info
Код:
General
Unique ID                                : 66442459470836555310088406628132023485 (0x31FC5A2B92884BFE2EB07B1AED916CBD)
Complete name                            : F:\Video\Home Alone. Diology (1990, 1992) 1080p H.265\1. Home Alone [RM] (1990) 1080p H.265 [2xUKR_ENG].
Format                                   :
Format version                           : Version 4 / Version 2
File size                                : 8.76 GiB
Duration                                 : 1 h 42 min
Overall bit rate                         : 12.2 Mb/s
Movie name                               : Home Alone (1990) Remastered - Rip by -Star-Lord-
Encoded date                             : UTC 2018-10-09 09:55:28
Writing application                      : v20.0.0 ('I Am The Sun') 32-bit
Writing library                          : libebml v1.3.5 + v1.4.8
Cover                                    : Yes
Attachments                              : Cover.jpg

Video
ID                                       : 1
Format                                   : HEVC
Format/Info                              : High Efficiency Video Coding
Format profile                           : Main [email protected]@High
Codec ID                                 : V_MPEGH/ISO/HEVC
Duration                                 : 1 h 42 min
Bit rate                                 : 10.0 Mb/s
Width                                    : 1 920 pixels
Height                                   : 1 036 pixels
Display aspect ratio                     : 1.85:1
Frame rate mode                          : Constant
Frame rate                               : 23.976 (24000/1001) FPS
Color space                              : YUV
Chroma subsampling                       : 4:2:0
Bit depth                                : 10 bits
Bits/(Pixel*Frame)                       : 0.210
Stream size                              : 7.21 GiB (82%)
Title                                    : Rip by -Star-Lord-
Writing library                          : x265 2.8+19-bcdc610cf5f0:[Windows][GCC 7.3.0][64 bit] 10bit
Encoding settings                        : cpuid=1111039 / frame-threads=5 / numa-pools=4 / wpp / no-pmode / no-pme / no-psnr / no-ssim / log-level=3 / input-csp=1 / input-res=1920x1036 / interlace=0 / total-frames=0 / level-idc=51 / high-tier=1 / uhd-bd=0 / ref=5 / allow-non-conformance / no-repeat-headers / annexb / no-aud / no-hrd / info / hash=0 / no-temporal-layers / open-gop / min-keyint=23 / keyint=240 / gop-lookahead=0 / bframes=8 / b-adapt=2 / b-pyramid / bframe-bias=0 / rc-lookahead=45 / lookahead-slices=6 / scenecut=40 / radl=0 / no-intra-refresh / ctu=64 / min-cu-size=8 / no-rect / no-amp / max-tu-size=32 / tu-inter-depth=1 / tu-intra-depth=1 / limit-tu=0 / rdoq-level=0 / dynamic-rd=0.00 / no-ssim-rd / signhide / no-tskip / nr-intra=0 / nr-inter=0 / no-constrained-intra / no-strong-intra-smoothing / max-merge=2 / limit-refs=3 / no-limit-modes / me=3 / subme=7 / merange=57 / temporal-mvp / weightp / weightb / no-analyze-src-pics / deblock=-3:-3 / no-sao / no-sao-non-deblock / rd=3 / no-early-skip / rskip / no-fast-intra / no-tskip-fast / no-cu-lossless / no-b-intra / no-splitrd-skip / rdpenalty=0 / psy-rd=1.20 / psy-rdoq=0.00 / no-rd-refine / no-lossless / cbqpoffs=0 / crqpoffs=0 / rc=crf / crf=20.0 / qcomp=0.65 / qpstep=4 / stats-write=0 / stats-read=0 / vbv-maxrate=50000 / vbv-bufsize=50000 / vbv-init=0.9 / crf-max=0.0 / crf-min=0.0 / ipratio=1.40 / pbratio=1.30 / aq-mode=1 / aq-strength=1.00 / cutree / zone-count=0 / no-strict-cbr / qg-size=32 / no-rc-grain / qpmax=69 / qpmin=0 / no-const-vbv / sar=1 / overscan=0 / videoformat=5 / range=0 / colorprim=1 / transfer=1 / colormatrix=1 / chromaloc=0 / display-window=0 / max-cll=0,0 / min-luma=0 / max-luma=1023 / log2-max-poc-lsb=8 / vui-timing-info / vui-hrd-info / slices=1 / no-opt-qp-pps / no-opt-ref-list-length-pps / no-multi-pass-opt-rps / scenecut-bias=0.05 / no-opt-cu-delta-qp / no-aq-motion / no-hdr / no-hdr-opt / no-dhdr10-opt / no-idr-recovery-sei / analysis-reuse-level=5 / scale-factor=0 / refine-intra=0 / refine-inter=0 / refine-mv=0 / no-limit-sao / ctu-info=0 / no-lowpass-dct / refine-mv-type=0 / copy-pic=1 / max-ausize-factor=1.0 / no-dynamic-refine / no-single-sei
Language                                 : English
Default                                  : Yes
Forced                                   : No
Color range                              : Limited
Color primaries                          : BT.709
Transfer characteristics                 : BT.709
Matrix coefficients                      : BT.709

Audio #1
ID                                       : 2
Format                                   :
Format/Info                              : Digital Theater Systems
Codec ID                                 : A_DTS
Duration                                 : 1 h 42 min
Bit rate mode                            : Constant
Bit rate                                 : 1 510 kb/s
Channel(s)                               : 6 channels
Channel positions                        : Front: L C R, Side: L R, LFE
Sampling rate                            : 48.0 kHz
Frame rate                               : 93.750 FPS (512 SPF)
Bit depth                                : 24 bits
Compression mode                         : Lossy
Stream size                              : 1.09 GiB (12%)
Title                                    : 5.1 @ 1536 Kbps, Багатоголосий закадровий, Новий канал
Language                                 : Ukrainian
Default                                  : Yes
Forced                                   : Yes

Audio #2
ID                                       : 3
Format                                   : AC-3
Format/Info                              : Audio Coding 3
Codec ID                                 : A_AC3
Duration                                 : 1 h 42 min
Bit rate mode                            : Constant
Bit rate                                 : 192 kb/s
Channel(s)                               : 2 channels
Channel positions                        : Front: L R
Sampling rate                            : 48.0 kHz
Frame rate                               : 31.250 FPS (1536 SPF)
Bit depth                                : 16 bits
Compression mode                         : Lossy
Stream size                              : 141 MiB (2%)
Title                                    : 2.0 @ 192 Kbps, Двохголосий закадровий, 1+1
Language                                 : Ukrainian
Service kind                             : Complete Main
Default                                  : No
Forced                                   : No

Audio #3
ID                                       : 4
Format                                   : AC-3
Format/Info                              : Audio Coding 3
Codec ID                                 : A_AC3
Duration                                 : 1 h 42 min
Bit rate mode                            : Constant
Bit rate                                 : 448 kb/s
Channel(s)                               : 6 channels
Channel positions                        : Front: L C R, Side: L R, LFE
Sampling rate                            : 48.0 kHz
Frame rate                               : 31.250 FPS (1536 SPF)
Bit depth                                : 16 bits
Compression mode                         : Lossy
Stream size                              : 330 MiB (4%)
Title                                    : Original
Language                                 : English
Service kind                             : Complete Main
Default                                  : No
Forced                                   : No

Text #1
ID                                       : 5
Format                                   : UTF-8
Codec ID                                 : S_TEXT/UTF8
Codec ID/Info                            : UTF-8 Plain Text
Duration                                 : 1 h 37 min
Bit rate                                 : 85 b/s
Count of elements                        : 1011
Stream size                              : 60.9 KiB (0%)
Title                                    : Full
Language                                 : Ukrainian
Default                                  : Yes
Forced                                   : No

Text #2
ID                                       : 6
Format                                   : UTF-8
Codec ID                                 : S_TEXT/UTF8
Codec ID/Info                            : UTF-8 Plain Text
Duration                                 : 1 h 37 min
Bit rate                                 : 54 b/s
Count of elements                        : 1019
Stream size                              : 39.3 KiB (0%)
Title                                    : Full
Language                                 : English
Default                                  : No
Forced                                   : No

Menu
00:00:00.000                             : en:Main Titles
00:03:47.060                             : en:"I'm Living Alone!"
00:05:46.679                             : en:Old Man Marley
00:08:49.278                             : en:Spilled Milk
00:11:28.729                             : en:"Everyone in This Family Hates Me."
00:13:43.239                             : en:Head Counts Don't Always Count
00:19:27.457                             : en:"I Made My Family Disappear!"
00:25:08.173                             : en:"What Kind of Mother Am I?"
00:31:16.040                             : en:"I'm the Man of the House!"
00:35:56.654                             : en:I Took a Shower...
00:41:09.550                             : en:Encounter With the Enemy
00:51:22.662                             : en:The Man of the House Goes Shopping
00:57:38.580                             : en:Everything's Full; Help From a Polka King
01:03:27.637                             : en:A Message to Santa/Somewhere in My Memory
01:06:33.656                             : en:The Real Old Man Marley
01:13:43.835                             : en:"This Is My House - I Have to Denfend It!"
01:15:13.216                             : en:"Merry Christmas, Little Fella!"
01:19:27.053                             : en:"Do You Do Ironing?"; Too Hot to Handle
01:22:51.341                             : en:"Come and Get Me!"
01:26:00.071                             : en:The Slide for Life
01:28:45.069                             : en:Outsmarted...And a Welcome Guest
01:33:32.231                             : en:Christmas Morning
01:37:58.288                             : en:Another Special Reunion
01:39:06.064                             : en:End Titles/Somewhere in My Memory (Reprise)
01:42:54.126                             : en:Everything's Full; Help From a Polka King
Скріншоти



2. Сам удома 2 / Один удома 2. Загублений у Нью-Йорку / Home Alone 2. Lost In New York (1992) 1080p H.265 2xUkr/Eng | Sub Eng
Сам удома 2 / Один удома 2. Загублений у Нью-Йорку / Home Alone 2. Lost In New York (1992) 1080p H.265 2xUkr/Eng | Sub Eng

Сам удома / Один удома. Збірка з двох частин / Home Alone: Dilogy (1990-1992) 1080р H.265 2хUkr/Eng | Sub Eng


Актори: Маколей Калкін / Macaulay Culkin, Джо Пеші / Joe Pesci, Деніел Стерн / Daniel Stern, Катрін О'Гара / Catherine O'Hara, Джон Герд / John Heard, Девін Ретрей / Devin Ratray, Гілларі Вулф / Hillary Wolf, Маурін Елізабет Шей, Майкл Сі. Маронна / Michael C. Maronna, Ґеррі Беммен / Gerry Bamman, Роб Шнайдер / Rob Schneider та інші

Сюжет:
Найменший герой Америки влаштовує великий переполох в Нью-Йорку! Кевін МакКалістер повернувся! Але тепер він один не вдома, а в Нью-Йорку і в нього достатньо грошей і кредитних карток, щоб перетворити Велике Яблуко на власний майданчик для ігор.

Але, як завжди, Кевіну не судилося бути довго одному, його старі приятелі шахраї Гарі і Марв втекли з в'язниці, куди вони потрапили завдяки Кевіну. І треба ж їм було потрапити саме в те місто, де Кевін планував розважитися. Нові пастки вже чекають на на бандитів невдах.


Тривалість: 02:00:01
Якість: (Власний Rip)
Відео:
кодек: H.265 (HEVC)
розмір кадру: 1920 х 1036
бітрейт: 13.6 Mb/s
бітова глибина: 10 біт
Увага! Перед завантаженням переконайтесь, що ваш пристрій відтворення (та/або ПЗ) підтримує H.265 (HEVC)

Аудіо # 1:
мова: українська
переклад: двоголосий закадровий
кодек: 5.1
бітрейт: 1 510 кб/с
примітка: доріжка отримана шляхом накладання чистих голосів на центральний канал. HDCLUB

Аудіо # 2: ,
мова: українська
переклад: двоголосий закадровий
кодек: 2.0
бітрейт: 192 кб/с

Аудіо # 3:
мова: англійська
переклад: оригінал
кодек: 5.1
бітрейт: 448 кб/с

Субтитри:
мова: англійська (Full)
тип: програмні (м'які)
формат: *.srt


Info
Код:
General
Unique ID                                : 5363779469311596322450749060013923903 (0x40906BED750851BA61BCF16FC409E3F)
Complete name                            : F:\Video\Home Alone. Diology (1990, 1992) 1080p H.265\2. Home Alone 2 - Lost in New York (1992) 1080p H.265 [2xUKR_ENG].
Format                                   :
Format version                           : Version 4 / Version 2
File size                                : 13.2 GiB
Duration                                 : 2 h 0 min
Overall bit rate                         : 15.8 Mb/s
Movie name                               : Home Alone 2 - Lost in New York (1992) - Rip by -Star-Lord-
Encoded date                             : UTC 2018-10-08 09:10:46
Writing application                      : v20.0.0 ('I Am The Sun') 32-bit
Writing library                          : libebml v1.3.5 + v1.4.8
Cover                                    : Yes
Attachments                              : cover.png

Video
ID                                       : 1
Format                                   : HEVC
Format/Info                              : High Efficiency Video Coding
Format profile                           : Main [email protected]@High
Codec ID                                 : V_MPEGH/ISO/HEVC
Duration                                 : 2 h 0 min
Bit rate                                 : 13.6 Mb/s
Width                                    : 1 920 pixels
Height                                   : 1 036 pixels
Display aspect ratio                     : 1.85:1
Frame rate mode                          : Constant
Frame rate                               : 23.976 (24000/1001) FPS
Color space                              : YUV
Chroma subsampling                       : 4:2:0
Bit depth                                : 10 bits
Bits/(Pixel*Frame)                       : 0.286
Stream size                              : 11.4 GiB (86%)
Title                                    : Rip by -Star-Lord-
Writing library                          : x265 2.8+19-bcdc610cf5f0:[Windows][GCC 7.3.0][64 bit] 10bit
Encoding settings                        : cpuid=1111039 / frame-threads=5 / numa-pools=4 / wpp / no-pmode / no-pme / no-psnr / no-ssim / log-level=3 / input-csp=1 / input-res=1920x1036 / interlace=0 / total-frames=0 / level-idc=51 / high-tier=1 / uhd-bd=0 / ref=5 / allow-non-conformance / no-repeat-headers / annexb / no-aud / no-hrd / info / hash=0 / no-temporal-layers / open-gop / min-keyint=23 / keyint=240 / gop-lookahead=0 / bframes=8 / b-adapt=2 / b-pyramid / bframe-bias=0 / rc-lookahead=45 / lookahead-slices=6 / scenecut=40 / radl=0 / no-intra-refresh / ctu=64 / min-cu-size=8 / no-rect / no-amp / max-tu-size=32 / tu-inter-depth=1 / tu-intra-depth=1 / limit-tu=0 / rdoq-level=0 / dynamic-rd=0.00 / no-ssim-rd / signhide / no-tskip / nr-intra=0 / nr-inter=0 / no-constrained-intra / no-strong-intra-smoothing / max-merge=2 / limit-refs=3 / no-limit-modes / me=3 / subme=7 / merange=57 / temporal-mvp / weightp / weightb / no-analyze-src-pics / deblock=-3:-3 / no-sao / no-sao-non-deblock / rd=3 / no-early-skip / rskip / no-fast-intra / no-tskip-fast / no-cu-lossless / no-b-intra / no-splitrd-skip / rdpenalty=0 / psy-rd=1.20 / psy-rdoq=0.00 / no-rd-refine / no-lossless / cbqpoffs=0 / crqpoffs=0 / rc=crf / crf=20.0 / qcomp=0.65 / qpstep=4 / stats-write=0 / stats-read=0 / vbv-maxrate=50000 / vbv-bufsize=50000 / vbv-init=0.9 / crf-max=0.0 / crf-min=0.0 / ipratio=1.40 / pbratio=1.30 / aq-mode=1 / aq-strength=1.00 / cutree / zone-count=0 / no-strict-cbr / qg-size=32 / no-rc-grain / qpmax=69 / qpmin=0 / no-const-vbv / sar=1 / overscan=0 / videoformat=5 / range=0 / colorprim=1 / transfer=1 / colormatrix=1 / chromaloc=0 / display-window=0 / max-cll=0,0 / min-luma=0 / max-luma=1023 / log2-max-poc-lsb=8 / vui-timing-info / vui-hrd-info / slices=1 / no-opt-qp-pps / no-opt-ref-list-length-pps / no-multi-pass-opt-rps / scenecut-bias=0.05 / no-opt-cu-delta-qp / no-aq-motion / no-hdr / no-hdr-opt / no-dhdr10-opt / no-idr-recovery-sei / analysis-reuse-level=5 / scale-factor=0 / refine-intra=0 / refine-inter=0 / refine-mv=0 / no-limit-sao / ctu-info=0 / no-lowpass-dct / refine-mv-type=0 / copy-pic=1 / max-ausize-factor=1.0 / no-dynamic-refine / no-single-sei
Language                                 : English
Default                                  : Yes
Forced                                   : No
Color range                              : Limited
Color primaries                          : BT.709
Transfer characteristics                 : BT.709
Matrix coefficients                      : BT.709

Audio #1
ID                                       : 2
Format                                   :
Format/Info                              : Digital Theater Systems
Codec ID                                 : A_DTS
Duration                                 : 2 h 0 min
Bit rate mode                            : Constant
Bit rate                                 : 1 510 kb/s
Channel(s)                               : 6 channels
Channel positions                        : Front: L C R, Side: L R, LFE
Sampling rate                            : 48.0 kHz
Frame rate                               : 93.750 FPS (512 SPF)
Bit depth                                : 24 bits
Compression mode                         : Lossy
Stream size                              : 1.27 GiB (10%)
Title                                    : Багатоголосий закадровий, Новий канал
Language                                 : Ukrainian
Default                                  : Yes
Forced                                   : Yes

Audio #2
ID                                       : 3
Format                                   : AC-3
Format/Info                              : Audio Coding 3
Codec ID                                 : A_AC3
Duration                                 : 2 h 0 min
Bit rate mode                            : Constant
Bit rate                                 : 192 kb/s
Channel(s)                               : 2 channels
Channel positions                        : Front: L R
Sampling rate                            : 48.0 kHz
Frame rate                               : 31.250 FPS (1536 SPF)
Bit depth                                : 16 bits
Compression mode                         : Lossy
Stream size                              : 165 MiB (1%)
Title                                    : 1+1, TET
Language                                 : Ukrainian
Service kind                             : Complete Main
Default                                  : No
Forced                                   : No

Audio #3
ID                                       : 4
Format                                   : AC-3
Format/Info                              : Audio Coding 3
Codec ID                                 : A_AC3
Duration                                 : 2 h 0 min
Bit rate mode                            : Constant
Bit rate                                 : 448 kb/s
Channel(s)                               : 6 channels
Channel positions                        : Front: L C R, Side: L R, LFE
Sampling rate                            : 48.0 kHz
Frame rate                               : 31.250 FPS (1536 SPF)
Bit depth                                : 16 bits
Compression mode                         : Lossy
Stream size                              : 385 MiB (3%)
Title                                    : Original
Language                                 : English
Service kind                             : Complete Main
Default                                  : No
Forced                                   : No

Text
ID                                       : 5
Format                                   : UTF-8
Codec ID                                 : S_TEXT/UTF8
Codec ID/Info                            : UTF-8 Plain Text
Duration                                 : 1 h 57 min
Bit rate                                 : 45 b/s
Count of elements                        : 1034
Stream size                              : 38.9 KiB (0%)
Title                                    : Full
Language                                 : English
Default                                  : No
Forced                                   : No

Menu
00:00:00.000                             : en:Main Titles
00:02:17.846                             : en:Preparing For Florida
00:05:22.613                             : en:St. Gerard's Christmas Pageant; Apologies
00:10:25.916                             : en:The Wake-Up Bell; At The Airport
00:16:31.740                             : en:Welcome To New York
00:22:32.434                             : en:The Smell Of Freedom
00:26:09.609                             : en:Checking In
00:30:49.347                             : en:A Sweet Suite
00:35:33.506                             : en:Housekeeping
00:40:43.941                             : en:A Limousine And A Pizza
00:43:22.266                             : en:The Plan; Duncan's Toy Chest
00:50:10.215                             : en:They Meet Again
00:53:56.524                             : en:Remote Control Magic
00:56:57.622                             : en:Falling Into The Wrong Hands
01:00:23.453                             : en:Kevin's Been Found
01:04:19.522                             : en:The Bird Lady Lends A Hand
01:08:01.952                             : en:Special Words In A Special Hideout
01:15:01.663                             : en:Operation HO HO HO
01:18:51.351                             : en:Another Christmas In The Trenches
01:23:02.102                             : en:Throwing Bricks
01:25:47.767                             : en:Stapled
01:28:27.885                             : en:Power Tools; A Painted Face
01:31:29.734                             : en:AC/DC; Hothead
01:35:45.448                             : en:Taking The Stairs
01:37:20.501                             : en:The Sound Of A Tool Chest...
01:38:55.220                             : en:A Soaked Rope
01:42:29.685                             : en:A Stroll In The Park; The Birds
01:46:56.493                             : en:A Concerned Mother; Reunited
01:55:49.150                             : en:End Titles
Скріншоти





Джерело:
Особиста оцінка: 10 - без зайвих вагань рекомендую всім!


Срібний реліз (на рейтинг впливає 50% завантаженого)
 Трекер:    Зареєстрований   

Завантажити / скачати фільм українською



відео для новачків



 Зареєстрований:   2018-10-09 16:05
 Розмір:   21.99 GB 
 Оцінка фільму:   9.3/10 (Голосів: 11)
   
deus207 
Новенький


З нами з: 19.03.10
Востаннє: 13.12.18
Повідомлень: 7

2018-10-09 22:24  
Навіщо так бітрейт задерто?

Як на мене, 5-6мбіт\с для якісного ріпу х265 достатньо.

-Star-Lord- 
VIP


З нами з: 09.08.18
Востаннє: 13.12.18
Повідомлень: 342

2018-10-10 09:29  
deus207
Я кодував не в бітрейт, а в crf, тому воно його так задерло.

vash1 
Поважний учасник


З нами з: 16.03.16
Востаннє: 13.12.18
Повідомлень: 153

2018-10-22 21:22  
deus207 написано:

Навіщо так бітрейт задерто?

Як на мене, 5-6мбіт\с для якісного ріпу х265 достатньо.


я теж здивувався що 13.6 наче багато. але там зернистість капітальна.

-Star-Lord- написано:
Я кодував не в бітрейт, а в crf, тому воно його так задерло.


пішов гуглити. загалом зрозумів що це. чому саме вибираєте 20?


-Star-Lord- 
VIP


З нами з: 09.08.18
Востаннє: 13.12.18
Повідомлень: 342

2018-10-23 01:09  
vash1 написано:
пішов гуглити. загалом зрозумів що це. чому саме вибираєте 20?

Спочатку було 18, бітрейт був більше 20 мб/сек, тому скинув до 20, думав, що більше зменшиться.

Додано через 1 хвилину 53 секунди:

Одні пишуть, що їм достатньо 5 мб/сек, інші хочуть між 8/10. Всім не догодиш(

Додано через 1 хвилину 17 секунд:

Якщо хочете, можу кодувати в бітрейт, тільки скажіть, скільки буде достатньо? 5 мб/сек? 10? 15?

vash1 
Поважний учасник


З нами з: 16.03.16
Востаннє: 13.12.18
Повідомлень: 153

2018-10-24 09:23  
Ну так. Там за CRF 18 - вже в сторону lossless іде. Тому 20 мабуть оптимальний варіант.



Я за CRF!

За допомогою кодування CRF вибирається якість. Кодек використовує потрібний бітрейт, необхідний для забезпечення такої якості.
За допомогою кодування бітрейтом - вибирається розмір файлу. Кодек забезпечує будь-яку якість щоб вкластися у розмір файлу.

Ваш часовий пояс: GMT + 2 Години

Нова тема   Відповісти