Острів проклятих / Shutter Island (2010) UHD Remux 2160p 4K HDR H.265 4xUkr/Eng | Sub Eng

Нові коментарі

Нова тема   Відповісти
Автор Повідомлення
Documentalist 
Частий відвідувач


З нами з: 04.06.17
Востаннє: 22.10.18
Повідомлень: 48

2018-10-09 14:44  
Острів проклятих / Shutter Island (2010) UHD Remux 2160p 4K HDR H.265 4xUkr/Eng | Sub Eng

Острів проклятих / Shutter Island (2010) UHD Remux 2160p 4K HDR H.265 4xUkr/Eng | Sub Eng


Жанр: містика, трилер, детектив
Країна: США



Кінокомпанія: Paramount Pictures, Phoenix Pictures, Sikelia Productions, Appian Way
Режисер: Мартін Скорсезе
Актори: Леонардо Ді Капріо, Марк Руффало, Бен Кінгслі, Макс фон Сюдов, Мішель Вільямс, Емілі Мортімер, Патріція Кларксон, Джекі Ерл Хейлі, Тед Левайн, Джон Керролл Лінч, Еліас Котеас та інші.

Сюжет:
На відокремленому острові стоїть клініка для злочинців, яких визнали неосудними. Там вони проходять курс реабілітації. Це місце живе за своїми власними законами і втручання сторонніх тут не вітається. Однак двоє приставів були відправлені, щоб розслідувати зникнення однієї з ув'язнених. На острові їх очікують атмосфера загадковості і великої змови, а на додачу до всього героям доведеться пережити лють стихії та повстання місцевих пацієнтів.


Тривалість: 02:18:04
Якість: UHD Remux
Відео:
кодек: H.265
розмір кадру: 3840 х 2160
бітрейт: 39.4 Мб/с
бітова глибина: 10 біт
кольоровий простір: BT.2020 (HDR)

Аудіо # 1:
мова: українська
переклад: професійний дубльований
кодек: 5.1
бітрейт: 448 кб/с

Аудіо # 2:
мова: українська
переклад: двоголосий закадровий
кодек: 2.0
бітрейт: 192 кб/с

Аудіо # 3:
мова: українська
переклад: багатоголосий закадровий
кодек: 2.0
бітрейт: 192 кб/с

Аудіо # 4:
мова: українська
переклад: багатоголосий закадровий
кодек: 2.0
бітрейт: 192 кб/с

Аудіо:
мова: англійська
переклад: оригінал
кодек: -HD 5.1
бітрейт: 4725 Мб/с

Субтитри:
мова: англійська
тип: програмні (м'які)
формат: *.srt
Info
Format :
Format version : Version 4
File size : 43.5 GiB
Duration : 2 h 18 min
Overall bit rate mode : Variable
Overall bit rate : 45.1 Mb/s
Movie name : UHD 2160 || Release by SpaceHD13
Encoded date : UTC 2018-10-08 21:40:31
Writing application : v7.8.0 ('River Man') 32bit built on Apr 3 2015 12:11:22
Writing library : libebml v1.3.1 + v1.4.2
Cover : Yes
Attachments : cover.jpg

Video
ID : 1
Format : HEVC
Format/Info : High Efficiency Video Coding
Commercial name : HDR10
Format profile : Main [email protected]@High
Codec ID : V_MPEGH/ISO/HEVC
Duration : 2 h 18 min
Bit rate : 39.4 Mb/s
Width : 3 840 pixels
Height : 2 160 pixels
Display aspect ratio : 16:9
Frame rate mode : Constant
Frame rate : 23.976 (24000/1001) FPS
Color space : YUV
Chroma subsampling : 4:2:0 (Type 2)
Bit depth : 10 bits
Bits/(Pixel*Frame) : 0.198
Stream size : 38.0 GiB (87%)
Title : Shutter Island
Language : Ukrainian
Default : Yes
Forced : No
Color range : Limited
Color primaries : BT.2020
Transfer characteristics : PQ
Matrix coefficients : BT.2020 non-constant
Mastering display color pri : Display P3
Mastering display luminance : min: 0.0001 cd/m2, max: 1000 cd/m2

Audio #1
ID : 2
Format : AC-3
Format/Info : Audio Coding 3
Commercial name : Dolby Digital
Codec ID : A_AC3
Duration : 2 h 18 min
Bit rate mode : Constant
Bit rate : 448 kb/s
Channel(s) : 6 channels
Channel layout : L R C LFE Ls Rs
Sampling rate : 48.0 kHz
Frame rate : 31.250 FPS (1536 SPF)
Bit depth : 16 bits
Compression mode : Lossy
Stream size : 442 MiB (1%)
Title : Дубльований
Language : Ukrainian
Service kind : Complete Main
Default : Yes
Forced : Yes

Audio #2
ID : 3
Format : AC-3
Format/Info : Audio Coding 3
Commercial name : Dolby Digital
Codec ID : A_AC3
Duration : 2 h 18 min
Bit rate mode : Constant
Bit rate : 192 kb/s
Channel(s) : 2 channels
Channel layout : L R
Sampling rate : 48.0 kHz
Frame rate : 31.250 FPS (1536 SPF)
Bit depth : 16 bits
Compression mode : Lossy
Stream size : 190 MiB (0%)
Title : 1+1
Language : Ukrainian
Service kind : Complete Main
Default : No
Forced : No

Audio #3
ID : 4
Format : AC-3
Format/Info : Audio Coding 3
Commercial name : Dolby Digital
Codec ID : A_AC3
Duration : 2 h 18 min
Bit rate mode : Constant
Bit rate : 192 kb/s
Channel(s) : 2 channels
Channel layout : L R
Sampling rate : 48.0 kHz
Frame rate : 31.250 FPS (1536 SPF)
Bit depth : 16 bits
Compression mode : Lossy
Stream size : 190 MiB (0%)
Title : ICTV
Language : Ukrainian
Service kind : Complete Main
Default : No
Forced : No

Audio #4
ID : 5
Format : AC-3
Format/Info : Audio Coding 3
Commercial name : Dolby Digital
Codec ID : A_AC3
Duration : 2 h 18 min
Bit rate mode : Constant
Bit rate : 192 kb/s
Channel(s) : 2 channels
Channel layout : L R
Sampling rate : 48.0 kHz
Frame rate : 31.250 FPS (1536 SPF)
Bit depth : 16 bits
Compression mode : Lossy
Stream size : 190 MiB (0%)
Title : Україна
Language : Ukrainian
Service kind : Complete Main
Default : No
Forced : No

Audio #5
ID : 6
Format : XLL
Format/Info : Digital Theater Systems
Commercial name : -HD Master Audio
Codec ID : A_DTS
Duration : 2 h 18 min
Bit rate mode : Variable
Bit rate : 4 725 kb/s
Channel(s) : 6 channels
Channel layout : C L R Ls Rs LFE
Sampling rate : 48.0 kHz
Frame rate : 93.750 FPS (512 SPF)
Bit depth : 24 bits
Compression mode : Lossless
Stream size : 4.56 GiB (10%)
Title : Original
Language : English
Default : No
Forced : No

Text #1
ID : 7
Format : UTF-8
Codec ID : S_TEXT/UTF8
Codec ID/Info : UTF-8 Plain Text
Duration : 2 h 8 min
Bit rate : 58 b/s
Count of elements : 1557
Stream size : 55.3 KiB (0%)
Title : Full
Language : English
Default : Yes
Forced : Yes

Text #2
ID : 8
Format : UTF-8
Codec ID : S_TEXT/UTF8
Codec ID/Info : UTF-8 Plain Text
Duration : 2 h 8 min
Bit rate : 61 b/s
Count of elements : 1661
Stream size : 58.1 KiB (0%)
Title : SDH
Language : English
Default : No
Forced : No

Menu
00:00:00.000 : :Chapter 1
00:06:33.142 : :Chapter 2
00:13:07.787 : :Chapter 3
00:20:20.928 : :Chapter 4
00:26:35.635 : :Chapter 5
00:34:54.801 : :Chapter 6
00:41:23.522 : :Chapter 7
00:48:29.573 : :Chapter 8
00:55:17.897 : :Chapter 9
01:04:02.672 : :Chapter 10
01:10:05.409 : :Chapter 11
01:16:54.401 : :Chapter 12
01:23:05.730 : :Chapter 13
01:31:37.742 : :Chapter 14
01:37:29.718 : :Chapter 15
01:45:39.082 : :Chapter 16
01:52:29.784 : :Chapter 17
01:57:39.969 : :Chapter 18
02:03:50.923 : :Chapter 19
02:10:30.989 : :Chapter 20
Скріншоти
Перегляд 4K HDR-контенту на ПК, керівництво з експлуатації

Для перегляду HDR-контенту необхідний телевізор з підтримкою HDR. Просто запишіть на usb-накопичувач викачане відео і встановіть його в ваш ТВ. На звичайних дисплеях зображення буде виглядати неконтрастним і знебарвленим.

Вирішення цієї проблеми, зараз можливо на PC під ОС Windows, використовуючи плеєр, який підтримує висновок зображення через рендер madvr (http://madvr.com), який може виконувати програмну конверсію, у кольоровий простір і гаму REC.709.

Ми рекомендуємо Media Player Classic Home Cinema.

Після встановлення рекомендованих плеєрів, необхідно окремо встановити madvr.
Для цього скачайте з сайту архів, розпакуйте його в зручне місце і запустіть install.bat від облікового запису адміністратора.
Після установки, папку з вмістом не видаляти!
Якщо папку необхідно перенести в інше місце, то після перенесення необхідно знову запустити install.bat.
Для того, щоб зображення виводилося за допомогою madvr, його необхідно вибрати в налаштуваннях плеєра:
Особиста оцінка: 10 - без зайвих вагань рекомендую всім!

Джерело:






Золотий реліз (завантажене не впливає на рейтинг)
 Трекер:    Зареєстрований   

Завантажити / скачати фільм українською



відео для новачків



 Зареєстрований:   2018-10-09 14:44
 Розмір:   43.5 GB 
 Оцінка фільму:   10/10 (Голосів: 9)
   
Documentalist 
Частий відвідувач


З нами з: 04.06.17
Востаннє: 22.10.18
Повідомлень: 48

2018-10-09 16:03  
З часом перероблю усi дорiжки у 5.1 ,в якостi .
Anоnymous 
Поважний учасник


З нами з: 25.08.18
Востаннє: 22.10.18
Повідомлень: 227

2018-10-09 16:12  
Documentalist написано:
З часом перероблю усi дорiжки у 5.1 ,в якостi .

З лайна бублик не зліпиш..........

Documentalist 
Частий відвідувач


З нами з: 04.06.17
Востаннє: 22.10.18
Повідомлень: 48

2018-10-09 16:15  
Anоnymous
Ще як зробимо!!!

nikolson1937 
Частий відвідувач


З нами з: 01.06.14
Востаннє: 21.10.18
Повідомлень: 28

2018-10-09 17:00  
Дякую, з а такий чудовий реліз
Anоnymous 
Поважний учасник


З нами з: 25.08.18
Востаннє: 22.10.18
Повідомлень: 227

2018-10-09 17:21  
Documentalist написано:
Ще як зробимо!!!

Ніколи.

Додано через 27 секунд:

або у випадку якщо ви його озвучите заново

Documentalist 
Частий відвідувач


З нами з: 04.06.17
Востаннє: 22.10.18
Повідомлень: 48

2018-10-09 17:54  
Anоnymous
Wink (2) Вже доводили не однаразово ,що такi так!

11FrYkT 
Модератор відео


З нами з: 20.02.11
Востаннє: 21.10.18
Повідомлень: 5093

2018-10-09 18:42  
Documentalist , в тех параметрах не описана оргінальна доріжка
Documentalist 
Частий відвідувач


З нами з: 04.06.17
Востаннє: 22.10.18
Повідомлень: 48

2018-10-09 19:05  
11FrYkT
Оце так ,дiйсно забув.Дякую.Виправив.

Anоnymous 
Поважний учасник


З нами з: 25.08.18
Востаннє: 22.10.18
Повідомлень: 227

2018-10-09 20:36  
Documentalist написано:
Вже доводили не однаразово ,що такi так!

Де?

Documentalist 
Частий відвідувач


З нами з: 04.06.17
Востаннє: 22.10.18
Повідомлень: 48

2018-10-09 23:32  
Documentalist
До ЛС звертайтесь.

Anоnymous 
Поважний учасник


З нами з: 25.08.18
Востаннє: 22.10.18
Повідомлень: 227

2018-10-10 00:12  
Documentalist написано:
ЛС

Ну....тоді нехай щастить.......

Documentalist 
Частий відвідувач


З нами з: 04.06.17
Востаннє: 22.10.18
Повідомлень: 48

2018-10-10 00:22  
Anоnymous
Дивакувата Ви людина.Я кажу до ЛС звертайтесь.Там все Вам показав я.
Добре, то Вам також, усього найкращого!

Ваш часовий пояс: GMT + 2 Години

Нова тема   Відповісти