Диявол / Devil (2010) AVC 2xUkr/Eng | Sub Ukr/Eng

Нові коментарі

Нова тема   Відповісти
Автор Повідомлення
staf777 
Відео Гуртом - підтримка та поширення
Відео Гуртом - підтримка та поширення


З нами з: 16.11.16
Востаннє: 23.04.19
Повідомлень: 2285

2018-10-09 09:20  
Диявол / Devil (2010) AVC 2xUkr/Eng | Sub Ukr/Eng

Диявол / Devil (2010) AVC 2xUkr/Eng | Sub Ukr/Eng


Жанр: жахи, містика, трилер
Країна: США



Кінокомпанія: Media Rights Capital, Night Chronicles, Relativity Media
Режисер: Джон Ерік Дадл
Актори: Джеффрі Аренд, Лоґан Маршалл-Ґрін, Кріс Мессіна, Бояна Новакович, Каролін Давернас, Джейкоб Варґас, Букем Вудбайн, Метт Кревен, Джошуа Піс та інші

Сюжет:
Кілька людей, які опинилися в застряглому ліфті, з часом розуміють, що серед них присутній сам диявол...


Тривалість: 01:20:28
Якість: AVC
Відео:
кодек:
розмір кадру: 1024x432
бітрейт: 2000 кб/с

Аудіо # 1:
мова: українська
переклад: багатоголосий закадровий
кодек: 2.0
бітрейт: 192 кб/с

Аудіо # 2:
мова: українська
переклад: багатоголосий закадровий
кодек: 2.0
бітрейт: 192 кб/с

Аудіо # 3:
мова: англійська
переклад: оригінал
кодек: 5.1
бітрейт: 384 кб/с

Джерело озвучення:
+

Субтитри # 1:
мова: українська
тип: програмні (м'які)
формат: *.srt

Субтитри # 2:
мова: англійська
тип: програмні (м'які)
формат: *.srt
Info
General
Unique ID : 18966413626541136007646550297590647305 (0xE44CC638E406350FCB582FB970C4A09)
Complete name : N:\Фільми AVC\Devil (2010) AVC [2xUkr, Eng][Sub Ukr Eng] [Hurtom] .
Format :
Format version : Version 4 / Version 2
File size : 1.56 GiB
Duration : 1 h 20 min
Overall bit rate : 2 779 kb/s
Movie name : Devil (2010) AVC [2xUkr, Eng][Sub Ukr Eng] [Hurtom]
Encoded date : UTC 2018-10-09 05:27:11
Writing application : v24.0.0 ('Beyond The Pale') 64-bit
Writing library : libebml v1.3.6 + v1.4.9
Cover : Yes
Attachments : cover.jpg

Video
ID : 1
Format : AVC
Format/Info : Advanced Video Codec
Format profile : [email protected]
Format settings : CABAC / 3 Ref Frames
Format settings, CABAC : Yes
Format settings, ReFrames : 3 frames
Codec ID : V_MPEG4/ISO/AVC
Duration : 1 h 20 min
Bit rate : 2 000 kb/s
Width : 1 024 pixels
Height : 432 pixels
Display aspect ratio : 2.40:1
Frame rate mode : Constant
Frame rate : 23.976 (24000/1001) FPS
Color space : YUV
Chroma subsampling : 4:2:0
Bit depth : 8 bits
Scan type : Progressive
Bits/(Pixel*Frame) : 0.189
Stream size : 1.13 GiB (72%)
Writing library : core 59
Encoding settings : cabac=1 / ref=3 / deblock=1:0:0 / analyse=0x1:0x131 / me=umh / subme=6 / brdo=1 / mixed_ref=1 / me_range=16 / chroma_me=1 / trellis=1 / 8x8dct=0 / cqm=0 / deadzone=21,11 / chroma_qp_offset=0 / threads=2 / nr=0 / decimate=1 / mbaff=0 / bframes=3 / b_pyramid=0 / b_adapt=1 / b_bias=0 / direct=1 / wpredb=1 / bime=1 / keyint=250 / keyint_min=25 / scenecut=40(pre) / rc=abr / bitrate=2000 / ratetol=1.0 / rceq='blurCplx^(1-qComp)' / qcomp=1.00 / qpmin=10 / qpmax=51 / qpstep=4 / ip_ratio=1.40 / pb_ratio=1.30 / aq=2:1.00
Default : Yes
Forced : No

Audio #1
ID : 2
Format : AC-3
Format/Info : Audio Coding 3
Codec ID : A_AC3
Duration : 1 h 20 min
Bit rate mode : Constant
Bit rate : 192 kb/s
Channel(s) : 2 channels
Channel positions : Front: L R
Sampling rate : 48.0 kHz
Frame rate : 31.250 FPS (1536 SPF)
Bit depth : 16 bits
Compression mode : Lossy
Stream size : 111 MiB (7%)
Title : [UA-MVO-NLO]
Language : Ukrainian
Service kind : Complete Main
Default : Yes
Forced : Yes

Audio #2
ID : 3
Format : AC-3
Format/Info : Audio Coding 3
Codec ID : A_AC3
Duration : 1 h 20 min
Bit rate mode : Constant
Bit rate : 192 kb/s
Channel(s) : 2 channels
Channel positions : Front: L R
Sampling rate : 48.0 kHz
Frame rate : 31.250 FPS (1536 SPF)
Bit depth : 16 bits
Compression mode : Lossy
Stream size : 111 MiB (7%)
Title : [UA-MVO-CINE]
Language : Ukrainian
Service kind : Complete Main
Default : No
Forced : No

Audio #3
ID : 4
Format : AC-3
Format/Info : Audio Coding 3
Codec ID : A_AC3
Duration : 1 h 20 min
Bit rate mode : Constant
Bit rate : 384 kb/s
Channel(s) : 6 channels
Channel positions : Front: L C R, Side: L R, LFE
Sampling rate : 48.0 kHz
Frame rate : 31.250 FPS (1536 SPF)
Bit depth : 16 bits
Compression mode : Lossy
Stream size : 221 MiB (14%)
Title : [Original]
Language : English
Service kind : Complete Main
Default : No
Forced : No

Text #1
ID : 5
Format : UTF-8
Codec ID : S_TEXT/UTF8
Codec ID/Info : UTF-8 Plain Text
Duration : 1 h 14 min
Bit rate : 89 b/s
Count of elements : 890
Stream size : 48.9 KiB (0%)
Language : Ukrainian
Default : No
Forced : No

Text #2
ID : 6
Format : UTF-8
Codec ID : S_TEXT/UTF8
Codec ID/Info : UTF-8 Plain Text
Duration : 1 h 14 min
Bit rate : 57 b/s
Count of elements : 1021
Stream size : 31.2 KiB (0%)
Language : English
Default : No
Forced : No
Скріншоти





Джерело: &
За українську доріжку подяка xslim, Sando7, ratbol, patriot2305, за допомогу з субтитрами з DVD R5 - antik_2008, igor911, krigg070.

Особиста оцінка: 0 - не дивився


 Трекер:    Зареєстрований   

Завантажити / скачати фільм українською



відео для новачків



 Зареєстрований:   2018-10-09 09:25
 Розмір:   1.56 GB 
 Оцінка фільму:   8.6/10 (Голосів: 14)
   
Інші релізи
   Диявол / Devil (2010) 1080p H.265 2xUkr/Eng | Sub Ukr/Eng -Star-Lord-  1 / 0   2.68 GB   2018-12-02 00:48 
   Диявол / Devil (2010) 1080p 2xUkr/Eng | Sub Ukr/Eng staf777  1 / 0   6.73 GB   2018-10-09 10:42 
   Диявол / Devil (2010) 2xUkr/Eng | Sub Ukr/Eng 21jumpstreet  3 / 0   1.46 GB   2018-04-28 19:16 
   Диявол / Devil (2010) Remux 1080p Ukr/Eng | Sub Eng famous37  2 / 0   16.41 GB   2016-02-16 22:52 
   Диявол / Devil (2010) Eng | Sub Ukr antik_2008  1 / 0   1.16 GB   2011-03-11 02:00 
bot 
робот


З нами з: 30.09.07
Востаннє: 26.05.05
Повідомлень: 21238

2018-10-09 09:25  
Тему перенесено з Анонси релізів до форуму Фільми


staf777

Ваш часовий пояс: GMT + 2 Години

Нова тема   Відповісти