Таємничі люди / Mystery Men (1999) 1080p Ukr/Eng | Sub Eng

Нові коментарі

Нова тема   Відповісти
Автор Повідомлення
Anonymous 







2018-10-08 18:40  
Таємничі люди / Mystery Men (1999) 1080p Ukr/Eng | Sub Eng

Таємничі люди / Mystery Men (1999) 1080p Ukr/Eng | Sub Eng


Жанр: екшн, комедія, фантастика
Країна: США



Кінокомпанія: Universal Pictures
Режисер: Кінка Ашер
Актори: Бен Стіллер, Хенк Азарія, Вільям Х. Мейсі, Жанін Гарофало, Грег Кіннер, Джефрі Раш, Лена Улін, Клер Форлані

Сюжет:
Король злочинного світу Казанова Франкенштейн готує лиховісний план. Для цього він викрадає Капітана Дивовижного - символ справедливості міста. Щоб захистити своє місто Чемпіон-Сіті від підступів злих сил, кращі його представники об'єднуються в згуртований колектив, що складається із Землекопа, головна зброя якого - лопата, містера Люті, який страшний в гніві, і Голубого Раджі, що чудово використовує виделки та ложки в якості бойової зброї.


Тривалість: 02:01:27
Якість: 1080p
Відео:
кодек:
розмір кадру: 1920х1040
бітрейт: 8 056 кб/с

Аудіо # 1:
мова: українська
переклад: двоголосий закадровий
кодек: 2.0
бітрейт: 192 кб/с

Аудіо # 2:
мова: англійська
переклад: оригінал
кодек: 5.1
бітрейт: 1509 кб/с

Субтитри:
мова: англійська
тип: програмні (м'які)
формат: *.srt
Info
General
Unique ID : 197783528233833630300934936828055236915 (0x94CBB8D1ECF18BD1811066438399B133)
Format :
Format version : Version 4 / Version 2
File size : 8.44 GiB
Duration : 2 h 1 min
Overall bit rate : 9 951 kb/s
Encoded date : UTC 2018-10-08 16:32:21
Writing application : v6.1.0 ('Old Devil') built on Mar 4 2013 09:10:42
Writing library : libebml v1.3.0 + v1.4.0

Video
ID : 1
Format : AVC
Format/Info : Advanced Video Codec
Format profile : [email protected]
Format settings : CABAC / 4 Ref Frames
Format settings, CABAC : Yes
Format settings, ReFrames : 4 frames
Codec ID : V_MPEG4/ISO/AVC
Duration : 2 h 1 min
Bit rate : 8 052 kb/s
Width : 1 920 pixels
Height : 1 040 pixels
Display aspect ratio : 1.85:1
Frame rate mode : Constant
Frame rate : 23.976 (24000/1001) FPS
Color space : YUV
Chroma subsampling : 4:2:0
Bit depth : 8 bits
Scan type : Progressive
Bits/(Pixel*Frame) : 0.168
Stream size : 6.83 GiB (81%)
Writing library : core 130 r2273 b3065e6
Encoding settings : cabac=1 / ref=4 / deblock=1:-1:-1 / analyse=0x3:0x133 / me=umh / subme=7 / psy=1 / psy_rd=1.00:0.15 / mixed_ref=1 / me_range=16 / chroma_me=1 / trellis=1 / 8x8dct=1 / cqm=0 / deadzone=21,11 / fast_pskip=0 / chroma_qp_offset=-3 / threads=12 / lookahead_threads=2 / sliced_threads=0 / nr=0 / decimate=1 / interlaced=0 / bluray_compat=0 / constrained_intra=0 / bframes=3 / b_pyramid=2 / b_adapt=1 / b_bias=0 / direct=3 / weightb=1 / open_gop=0 / weightp=2 / keyint=240 / keyint_min=23 / scenecut=40 / intra_refresh=0 / rc_lookahead=40 / rc=crf / mbtree=1 / crf=20.0 / qcomp=0.60 / qpmin=0 / qpmax=69 / qpstep=4 / ip_ratio=1.40 / aq=1:1.00
Default : Yes
Forced : No

Audio #1
ID : 2
Format : AC-3
Format/Info : Audio Coding 3
Codec ID : A_AC3
Duration : 2 h 1 min
Bit rate mode : Constant
Bit rate : 192 kb/s
Channel(s) : 2 channels
Channel positions : Front: L R
Sampling rate : 48.0 kHz
Frame rate : 31.250 FPS (1536 SPF)
Bit depth : 16 bits
Compression mode : Lossy
Delay relative to video : -763 ms
Stream size : 167 MiB (2%)
Title : UKR (NLO-TV)
Language : Ukrainian
Service kind : Complete Main
Default : Yes
Forced : Yes

Audio #2
ID : 3
Format :
Format/Info : Digital Theater Systems
Codec ID : A_DTS
Duration : 2 h 1 min
Bit rate mode : Constant
Bit rate : 1 509 kb/s
Channel(s) : 6 channels
Channel positions : Front: L C R, Side: L R, LFE
Sampling rate : 48.0 kHz
Frame rate : 93.750 FPS (512 SPF)
Bit depth : 24 bits
Compression mode : Lossy
Stream size : 1.28 GiB (15%)
Language : English
Default : No
Forced : No

Text
ID : 4
Format : UTF-8
Codec ID : S_TEXT/UTF8
Codec ID/Info : UTF-8 Plain Text
Default : Yes
Forced : No
Скріншоти









За українську доріжку подяка п.: POMEO, NemoInFire
Особиста подяка пану denixx за надану матеріальну допомогу на підтримку цього і майбутніх релізів.
Джерело:


Срібний реліз (на рейтинг впливає 50% завантаженого)
 Трекер:    Зареєстрований   

Завантажити / скачати фільм українською



відео для новачків



 Зареєстрований:   2018-10-08 18:40
 Розмір:   8.44 GB 
 Оцінка фільму:   9.5/10 (Голосів: 4)
   
Інші релізи
   Таємничі люди / Mystery Men (1999) NemoInFire  3 / 0   1.85 GB   2014-11-21 18:12 
Ваш часовий пояс: GMT + 2 Години

Нова тема   Відповісти