Весiльний розгром / A Few Best Men (2011) 1080p Ukr/Eng

Нові коментарі

Нова тема   Відповісти
Останній раз роздавалося staf777 (2018-10-16)
Автор Повідомлення
staf777 
Попереджень: 1
Попереджень: 1 


З нами з: 16.11.16
Востаннє: 16.10.18
Повідомлень: 1632

2018-10-08 19:17  
Весiльний розгром / A Few Best Men (2011) 1080p Ukr/Eng

Весiльний розгром / A Few Best Men (2011) 1080p Ukr/Eng


Жанр: комедія, романтичний
Країна: Австралія, Великобританія



Кінокомпанія: Screen Australia, Quickfire Films, Screen NSW
Режисер: Стефан Елліот / Stephan Elliott
Актори: Ксавєр Семюель / Xavier Samuel, Кріс Маршал / Kris Marshall, Кевін Бішоп / Kevin Bishop, Тім Драксл / Tim Draxl, Лаура Брент / Laura Brent, Ребел Вілсон / Rebel Wilson, Олівія Ньютон-Джон / Olivia Newton-John, Джонатан Біґінс / Jonathan Biggins, Елізабет Дебікі / Elizabeth Debicki та інші

Сюжет:
Як святкують весілля у Австралії? Та крутіше, ніж новий рік в Америці. Розкішна церемонія, море алкоголю і трійка вірних друзів, які вирішили відірватися на повну. Чи зможе справжне кохання пережити ці випробування?


Тривалість: 01:36:32
Якість: 1080p
Відео:
кодек:
розмір кадру: 1920x816
бітрейт: 8200 кб/с

Аудіо # 1:
мова: українська
переклад: багатоголосий закадровий
кодек: 2.0
бітрейт: 192 кб/с

Аудіо # 2:
мова: англійська
переклад: оригінал
кодек: 5.1
бітрейт: 1509 кб/с

Джерело озвучення:





MI
General
Unique ID : 75562801928966335652095072810211978586 (0x38D8DDC54AA17986923580C1048BAD5A)
Complete name : N:\Майбутні релізи\A Few Best Men (2011) 1080p [UKR_ENG] [Hurtom].
Format :
Format version : Version 4 / Version 2
File size : 6.68 GiB
Duration : 1 h 36 min
Overall bit rate : 9 902 kb/s
Movie name : A Few Best Men (2011) 1080p [UKR_ENG] [Hurtom]
Encoded date : UTC 2018-10-08 15:34:30
Writing application : v24.0.0 ('Beyond The Pale') 64-bit
Writing library : libebml v1.3.6 + v1.4.9
Cover : Yes
Attachments : cover.jpg

Video
ID : 1
Format : AVC
Format/Info : Advanced Video Codec
Format profile : [email protected]
Format settings : CABAC / 5 Ref Frames
Format settings, CABAC : Yes
Format settings, ReFrames : 5 frames
Codec ID : V_MPEG4/ISO/AVC
Duration : 1 h 36 min
Bit rate : 8 200 kb/s
Width : 1 920 pixels
Height : 816 pixels
Display aspect ratio : 2.35:1
Frame rate mode : Constant
Frame rate : 24.000 FPS
Color space : YUV
Chroma subsampling : 4:2:0
Bit depth : 8 bits
Scan type : Progressive
Bits/(Pixel*Frame) : 0.218
Stream size : 5.53 GiB (83%)
Writing library : core 125 r2200 999b753
Encoding settings : cabac=1 / ref=5 / deblock=1:0:0 / analyse=0x3:0x133 / me=umh / subme=8 / psy=1 / psy_rd=1.00:0.00 / mixed_ref=1 / me_range=16 / chroma_me=1 / trellis=1 / 8x8dct=1 / cqm=0 / deadzone=21,11 / fast_pskip=0 / chroma_qp_offset=-2 / threads=12 / lookahead_threads=2 / sliced_threads=0 / nr=0 / decimate=1 / interlaced=0 / bluray_compat=0 / constrained_intra=0 / bframes=3 / b_pyramid=2 / b_adapt=1 / b_bias=0 / direct=1 / weightb=1 / open_gop=0 / weightp=2 / keyint=250 / keyint_min=24 / scenecut=40 / intra_refresh=0 / rc_lookahead=40 / rc=2pass / mbtree=1 / bitrate=8200 / ratetol=1.0 / qcomp=0.60 / qpmin=0 / qpmax=69 / qpstep=4 / cplxblur=20.0 / qblur=0.5 / ip_ratio=1.40 / aq=1:1.00
Language : English
Default : Yes
Forced : No

Audio #1
ID : 2
Format : AC-3
Format/Info : Audio Coding 3
Codec ID : A_AC3
Duration : 1 h 36 min
Bit rate mode : Constant
Bit rate : 192 kb/s
Channel(s) : 2 channels
Channel positions : Front: L R
Sampling rate : 48.0 kHz
Frame rate : 31.250 FPS (1536 SPF)
Bit depth : 16 bits
Compression mode : Lossy
Stream size : 133 MiB (2%)
Title : [UA-MVO-K1]
Language : Ukrainian
Service kind : Complete Main
Default : Yes
Forced : Yes

Audio #2
ID : 3
Format :
Format/Info : Digital Theater Systems
Codec ID : A_DTS
Duration : 1 h 36 min
Bit rate mode : Constant
Bit rate : 1 509 kb/s
Channel(s) : 6 channels
Channel positions : Front: L C R, Side: L R, LFE
Sampling rate : 48.0 kHz
Frame rate : 93.750 FPS (512 SPF)
Bit depth : 24 bits
Compression mode : Lossy
Stream size : 1.02 GiB (15%)
Title : , 5.1 ch, 1510 Kbps - ENG
Language : English
Default : No
Forced : No

Text
ID : 4
Format : UTF-8
Codec ID : S_TEXT/UTF8
Codec ID/Info : UTF-8 Plain Text
Duration : 1 h 35 min
Bit rate : 90 b/s
Count of elements : 1659
Stream size : 63.1 KiB (0%)
Title : English SDH
Language : English
Default : No
Forced : No
Запис з ТБ: slavik_v_z, Sando7, POMEO;
Синхронізація: patriot2305
Джерело: &
Особиста оцінка: 0 - не дивився



 Трекер:    Зареєстрований   

Завантажити / скачати фільм українською



відео для новачків



 Зареєстрований:   2018-10-08 19:32
 Розмір:   6.68 GB 
 Оцінка фільму:   5.5/10 (Голосів: 2)
   
Інші релізи
   Весiльний розгром / A Few Best Men (2011) AVC Ukr/Eng staf777  1 / 0   1.64 GB   2018-10-01 19:10 
   Весiльний розгром / A Few Best Men (2011) Ukr/Eng patriot2305  3 / 0   1.46 GB   2015-08-30 19:13 
bot 
робот


З нами з: 30.09.07
Востаннє: 26.05.05
Повідомлень: 19956

2018-10-08 19:32  
Тему перенесено з Анонси релізів до форуму Фільми в HD


staf777

Ваш часовий пояс: GMT + 2 Години

Нова тема   Відповісти